Важное объявление!
У Нас Все раздачи мультитрекерные, при нуле пиров в релизах, можете смело вставать на закачку!
 
Автор Сообщение

HUNTER

Стаж:
4 года 4 месяца
Сообщений:
56755

Репутация: 101

[+] [-]
Вне форума [Профиль] [ЛС]

-Семейка Крудс / The Croods-
Страна: США
Жанр: фэнтези, комедия, приключения, семейный
Продолжительность: 01:38:37
Год выпуска: 2013
Перевод: Авторский (одноголосый закадровый)
Субтитры: нет-Режиссер: Кирк де Микко, Крис Сандерс
Роли озвучивали: Николас Кейдж, Эмма Стоун, Райан Рейнольдс, Кэтрин Кинер, Клорис Личмен, Кларк Дьюк, Крис Сандерс.
Описание: Семья Крудс — самое обычное среднестатистическое семейство, живущее по своим правилам и традициям. Правда живут они не в современном мире, а в доисторические времена, когда у людей практически ничего не было и они занимались первооткрывательством. Однако глава семейства всегда считал, что все новое и неизведанное хранит в себе большую опасность, поэтому они не исследовали окружающий их мир, а спокойно жили в родных местах. Но вскоре произошло землетрясение, которое разрушило их дом, после чего Крудсы вынуждены были покинуть родную землю и отправится на поиски нового жилья. Путешествуя по красивому миру, который они никогда прежде не видели, семейство знакомится с молодым и отважным парнем по имени Гай. Именно он становится проводником Крудсов, и помогает им спастись от конца света.-Качество: BDRip (источник: Blu-ray Remux / 1080p)
Формат: AVI | Sample
Видео: 720x304 (2.37:1), 23.976 fps, XviD build 65 ~2270 kbps avg, 0.43 bit/pixel
Аудио 1: 48 kHz, AC3 Dolby Digital, 3/2 (L,C,R,l,r) + LFE ch, ~448.00 kbps avg | Сербин
Аудио 2: 48 kHz, AC3 Dolby Digital, 3/2 (L,C,R,l,r) + LFE ch, ~448.00 kbps avg | Володарский

СкриншотыМедиаинфо
ОбщееФормат : AVIФормат/Информация : Audio Video InterleaveПрофиль формата : OpenDMLРазмер файла : 2,19 ГбайтПродолжительность : 1 ч. 38 м.Общий поток : 3183 Кбит/секПрограмма кодирования : VirtualDubModRus 1.5.10.2 (build 2542/release)Библиотека кодирования : VirtualDubMod build 2542/release
ВидеоИдентификатор : 0Формат : MPEG-4 VisualПрофиль формата : Advanced Simple@L5Параметр BVOP формата : 2Параметр QPel формата : НетПараметр GMC формата : Без точки переходаПараметр матрицы формата : ВыборочнаяИдентификатор кодека : XVIDИдентификатор кодека/Подсказка : XviDПродолжительность : 1 ч. 38 м.Битрейт : 2270 Кбит/секШирина : 720 пикселейВысота : 304 пикселяСоотношение сторон : 2,35:1Частота кадров : 23,976 кадра/секЦветовое пространство : YUVСубдискретизация насыщенности : 4:2:0Битовая глубина : 8 битТип развёртки : ПрогрессивнаяМетод сжатия : С потерямиБит/(Пиксели*Кадры) : 0.432Размер потока : 1,56 Гбайт (71%)Библиотека кодирования : XviD 65
Аудио #1Идентификатор : 1Формат : AC-3Формат/Информация : Audio Coding 3Расширение режима : CM (complete main)Параметр Endianness формата : BigИдентификатор кодека : 2000Продолжительность : 1 ч. 38 м.Вид битрейта : ПостоянныйБитрейт : 448 Кбит/секКаналы : 2 каналаРасположение каналов : Front: L RЧастота : 48,0 КГцБитовая глубина : 16 битМетод сжатия : С потерямиРазмер потока : 316 Мбайт (14%)Выравнивание : Разделение по промежуткамПродолжительность промежутка : 42 мс. (1,00 видеокадр)Время предзагрузки промежутка : 500 мс.
Аудио #2Идентификатор : 2Формат : AC-3Формат/Информация : Audio Coding 3Расширение режима : CM (complete main)Параметр Endianness формата : BigИдентификатор кодека : 2000Продолжительность : 1 ч. 38 м.Вид битрейта : ПостоянныйБитрейт : 448 Кбит/секКаналы : 6 каналовРасположение каналов : Front: L C R, Side: L R, LFEЧастота : 48,0 КГцБитовая глубина : 16 битМетод сжатия : С потерямиРазмер потока : 316 Мбайт (14%)Выравнивание : Разделение по промежуткамПродолжительность промежутка : 42 мс. (1,00 видеокадр)Время предзагрузки промежутка : 500 мс.
Дополнительно
Автор видео Yabrat
Видео отсюда

_________________
Показать сообщения:    

Текущее время: Сегодня 13:08

Часовой пояс: GMT



Вы не можете начинать темы
Вы не можете отвечать на сообщения
Вы не можете редактировать свои сообщения
Вы не можете удалять свои сообщения
Вы не можете голосовать в опросах
Вы не можете прикреплять файлы к сообщениям
Вы не можете скачивать файлы