Важное объявление!
У Нас Все раздачи мультитрекерные, при нуле пиров в релизах, можете смело вставать на закачку!
 
Автор Сообщение

HUNTER

Стаж:
4 года 4 месяца
Сообщений:
56842

Репутация: 101

[+] [-]
Вне форума [Профиль] [ЛС]


Семейка Крудс | The Croods
«Если они не эволюционируют, то станут историей»
-
Страна: США
Жанр: приключения, комедия, семейный
Продолжительность: 01:38:37
Год выпуска: 2013
Перевод: Профессиональный (дублированный)
Перевод 2: Авторский (одноголосый закадровый) Юрий Сербин
Перевод 3: Авторский (одноголосый закадровый) Леонид Володарский
Русские субтитры: Rus, Eng, Ukr
Режиссёр: Кирк де Микко / Kirk De Micco, Крис Сандерс / Chris Sanders
Роли озвучивали: Николас Кейдж, Эмма Стоун, Райан Рейнольдс, Кэтрин Кинер, Клорис Личмен, Кларк Дьюк, Крис Сандерс...
Роли дублировали: Дмитрий Назаров, Нюша Шурочкина, Егор Дружинин, Александра Назарова, Руслан Мещанов-ОписаниеЗемлетрясение уничтожило дом доисторической семьи, и теперь Крудсам придётся искать другое пристанище. А вокруг новый и опасный мир! Им на помощь приходит молодой кочевник Малой, передовые взгляды которого наталкиваются на консервативность главы семьи Груга. Но только вместе они смогут выжить и достичь своей цели...-
«Семейка Крудс» (англ. The Croods) — полнометражный компьютерный мультипликационный фильм от DreamWorks Animation
Релиз:

Сэмпл

IMDb: 7.30 (129 952)
Качество: BDRip-AVC
Формат: MKV
Видео: AVC 3361 Kbps 1152 x 490 (2.351) 23.976 fps
Аудио: AC-3 448 Kbps 6 channels, 48.0 KHz Rus
Аудио 2: AC-3 448 Kbps 6 channels, 48.0 KHz Юрий Сербин
Аудио 3: AC-3 448 Kbps 6 channels, 48.0 KHz Леонид Володарский
Аудио 4: AC-3 448 Kbps 6 channels, 48.0 KHz Ukr
Аудио 5: AC-3 448 Kbps 6 channels, 48.0 KHz Eng
Субтитры: Rus, Eng, Ukr SRT

MI | Log

Log
x264 [info]: frame I:980 Avg QP:15.06 size: 98720
x264 [info]: frame P:40124 Avg QP:16.18 size: 32849
x264 [info]: frame B:100760 Avg QP:19.20 size: 11441
x264 [info]: consecutive B-frames: 4.7% 9.5% 14.3% 28.9% 18.9% 19.1% 2.0% 0.6% 0.5% 0.3% 0.3% 0.1% 0.1% 0.2% 0.3%
x264 [info]: mb I I16..4: 6.7% 73.3% 19.9%
x264 [info]: mb P I16..4: 5.0% 18.1% 2.5% P16..4: 26.4% 28.0% 12.9% 2.8% 0.4% skip: 3.9%
x264 [info]: mb B I16..4: 1.9% 3.0% 0.4% B16..8: 31.4% 21.1% 4.1% direct: 6.3% skip:31.9% L0:40.4% L1:42.6% BI:17.0%
x264 [info]: 8x8 transform intra:66.3% inter:57.1%
x264 [info]: direct mvs spatial:100.0% temporal:0.0%
x264 [info]: coded y,uvDC,uvAC intra: 71.9% 89.5% 74.8% inter: 24.1% 23.0% 9.8%
x264 [info]: i16 v,h,dc,p: 82% 5% 1% 13%
x264 [info]: i8 v,h,dc,ddl,ddr,vr,hd,vl,hu: 8% 11% 7% 9% 12% 11% 14% 12% 16%
x264 [info]: i4 v,h,dc,ddl,ddr,vr,hd,vl,hu: 8% 10% 8% 8% 16% 13% 15% 10% 13%
x264 [info]: i8c dc,h,v,p: 48% 22% 12% 17%
x264 [info]: Weighted P-Frames: Y:6.7% UV:5.7%
x264 [info]: ref P L0: 50.9% 10.5% 13.7% 6.4% 4.6% 3.5% 3.0% 2.2% 1.4% 1.3% 1.1% 1.2% 0.3% 0.0%
x264 [info]: ref B L0: 76.0% 9.2% 4.8% 2.5% 1.8% 1.5% 2.1% 0.8% 0.7% 0.4% 0.2%
x264 [info]: ref B L1: 93.1% 6.9%
x264 [info]: kb/s:3471.51
x264 [total]: encoded 141864 frames, 8.88 fps, 3471.52 kb/s, duration 4:26:14.88
Format : Matroska
Format version : Version 4 / Version 2
File size : 3.94 GiB
Duration : 1h 38mn
Overall bit rate : 5 715 Kbps
Encoded date : UTC 2015-07-04 22:22:23
Writing application : mkvmerge v6.7.0 ('Back to the Ground') 32bit built on Jan 8 2014 15:03:17
Writing library : libebml v1.3.0 + libmatroska v1.4.1
Video
ID : 1
Format : AVC
Format/Info : Advanced Video Codec
Format profile : High@L4.1
Format settings, CABAC : Yes
Format settings, ReFrames : 12 frames
Codec ID : V_MPEG4/ISO/AVC
Duration : 1h 38mn
Bit rate : 3 361 Kbps
Width : 1 152 pixels
Height : 490 pixels
Display aspect ratio : 2.35:1
Frame rate mode : Constant
Frame rate : 23.976 fps
Color space : YUV
Chroma subsampling : 4:2:0
Bit depth : 8 bits
Scan type : Progressive
Bits/(Pixel*Frame) : 0.248
Stream size : 2.32 GiB (59%)
Title : The Croods (2013) [rutracker.org]
Writing library : x264 core 144 r2525kMod 40bb568
Encoding settings : cabac=1 / ref=12 / deblock=1:-2:-1 / analyse=0x3:0x133 / me=umh / subme=11 / psy=1 / fade_compensate=0.00 / psy_rd=1.00:0.05 / mixed_ref=1 / me_range=32 / chroma_me=1 / trellis=2 / 8x8dct=1 / cqm=0 / deadzone=21,11 / fast_pskip=0 / chroma_qp_offset=-3 / threads=12 / lookahead_threads=3 / sliced_threads=0 / nr=0 / decimate=1 / interlaced=0 / bluray_compat=0 / constrained_intra=0 / fgo=0 / bframes=14 / b_pyramid=2 / b_adapt=2 / b_bias=0 / direct=3 / weightb=1 / open_gop=0 / weightp=2 / keyint=250 / keyint_min=23 / scenecut=40 / intra_refresh=0 / rc_lookahead=80 / rc=crf / mbtree=0 / crf=17.4000 / qcomp=0.60 / qpmin=0 / qpmax=69 / qpstep=4 / vbv_maxrate=50000 / vbv_bufsize=62500 / crf_max=0.0 / nal_hrd=none / filler=0 / ip_ratio=1.40 / pb_ratio=1.30 / aq=3:0.90
Language : English
Default : Yes
Forced : No
Audio #1
ID : 2
Format : AC-3
Format/Info : Audio Coding 3
Mode extension : CM (complete main)
Format settings, Endianness : Big
Codec ID : A_AC3
Duration : 1h 38mn
Bit rate mode : Constant
Bit rate : 448 Kbps
Channel(s) : 6 channels
Channel positions : Front: L C R, Side: L R, LFE
Sampling rate : 48.0 KHz
Compression mode : Lossy
Stream size : 316 MiB (8%)
Title : DUB
Language : Russian
Default : Yes
Forced : No
Audio #2
ID : 3
Format : AC-3
Format/Info : Audio Coding 3
Mode extension : CM (complete main)
Format settings, Endianness : Big
Codec ID : A_AC3
Duration : 1h 38mn
Bit rate mode : Constant
Bit rate : 448 Kbps
Channel(s) : 6 channels
Channel positions : Front: L C R, Side: L R, LFE
Sampling rate : 48.0 KHz
Compression mode : Lossy
Stream size : 316 MiB (8%)
Title : AVO [U. Serbin]
Language : Russian
Default : No
Forced : No
Audio #3
ID : 4
Format : AC-3
Format/Info : Audio Coding 3
Mode extension : CM (complete main)
Format settings, Endianness : Big
Codec ID : A_AC3
Duration : 1h 38mn
Bit rate mode : Constant
Bit rate : 448 Kbps
Channel(s) : 6 channels
Channel positions : Front: L C R, Side: L R, LFE
Sampling rate : 48.0 KHz
Compression mode : Lossy
Stream size : 316 MiB (8%)
Title : AVO [L. Volodarski]
Language : Russian
Default : No
Forced : No
Audio #4
ID : 5
Format : AC-3
Format/Info : Audio Coding 3
Mode extension : CM (complete main)
Format settings, Endianness : Big
Codec ID : A_AC3
Duration : 1h 38mn
Bit rate mode : Constant
Bit rate : 448 Kbps
Channel(s) : 6 channels
Channel positions : Front: L C R, Side: L R, LFE
Sampling rate : 48.0 KHz
Compression mode : Lossy
Stream size : 316 MiB (8%)
Title : DUB
Language : Ukrainian
Default : No
Forced : No
Audio #5
ID : 6
Format : AC-3
Format/Info : Audio Coding 3
Mode extension : CM (complete main)
Format settings, Endianness : Big
Codec ID : A_AC3
Duration : 1h 38mn
Bit rate mode : Constant
Bit rate : 448 Kbps
Channel(s) : 6 channels
Channel positions : Front: L C R, Side: L R, LFE
Sampling rate : 48.0 KHz
Compression mode : Lossy
Stream size : 316 MiB (8%)
Title : Original
Language : English
Default : No
Forced : No
Text #1
ID : 7
Format : UTF-8
Codec ID : S_TEXT/UTF8
Codec ID/Info : UTF-8 Plain Text
Title : FULL
Language : Russian
Default : No
Forced : No
Text #2
ID : 8
Format : UTF-8
Codec ID : S_TEXT/UTF8
Codec ID/Info : UTF-8 Plain Text
Title : FULL
Language : Ukrainian
Default : No
Forced : No
Text #3
ID : 9
Format : UTF-8
Codec ID : S_TEXT/UTF8
Codec ID/Info : UTF-8 Plain Text
Title : FULL
Language : English
Default : No
Forced : No
Text #4
ID : 10
Format : UTF-8
Codec ID : S_TEXT/UTF8
Codec ID/Info : UTF-8 Plain Text
Title : SDH
Language : English
Default : No
Forced : No
Menu
00:00:00.000 : en:Chapter 1
00:02:34.988 : en:Chapter 2
00:04:51.750 : en:Chapter 3
00:09:01.249 : en:Chapter 4
00:12:21.115 : en:Chapter 5
00:14:04.802 : en:Chapter 6
00:18:33.029 : en:Chapter 7
00:21:56.982 : en:Chapter 8
00:23:24.737 : en:Chapter 9
00:26:49.775 : en:Chapter 10
00:28:37.132 : en:Chapter 11
00:30:25.657 : en:Chapter 12
00:32:48.633 : en:Chapter 13
00:36:03.370 : en:Chapter 14
00:38:33.561 : en:Chapter 15
00:41:34.534 : en:Chapter 16
00:44:38.843 : en:Chapter 17
00:48:02.630 : en:Chapter 18
00:52:10.961 : en:Chapter 19
00:55:17.481 : en:Chapter 20
01:00:14.778 : en:Chapter 21
01:03:58.084 : en:Chapter 22
01:05:48.736 : en:Chapter 23
01:08:44.037 : en:Chapter 24
01:10:47.285 : en:Chapter 25
01:12:37.144 : en:Chapter 26
01:14:01.646 : en:Chapter 27
01:19:48.575 : en:Chapter 28
01:23:09.860 : en:Chapter 29
01:25:16.737 : en:Chapter 30
01:28:04.321 : en:Chapter 31
01:30:02.230 : en:Chapter 32[/pre]

Скриншоты






_________________
Показать сообщения:    

Текущее время: Сегодня 13:35

Часовой пояс: GMT



Вы не можете начинать темы
Вы не можете отвечать на сообщения
Вы не можете редактировать свои сообщения
Вы не можете удалять свои сообщения
Вы не можете голосовать в опросах
Вы не можете прикреплять файлы к сообщениям
Вы не можете скачивать файлы