Важное объявление!
У Нас Все раздачи мультитрекерные, при нуле пиров в релизах, можете смело вставать на закачку!
 
Автор Сообщение

HUNTER

Стаж:
4 года 4 месяца
Сообщений:
56829

Репутация: 101

[+] [-]
Вне форума [Профиль] [ЛС]

Семейка Крудс / The Croods-
Страна: США
Жанр: мультфильм, фэнтези, комедия, приключения, семейны
Продолжительность: 01:38:36
Год выпуска: 2013
Перевод: Профессиональный (дублированный)
Русские субтитры: есть-Режиссёр: Кирк де Микко / Kirk De Micco, Крис Сандерс / Chris Sanders
Роли озвучивали: Николас Кейдж, Эмма Стоун, Райан Рейнольдс, Кэтрин Кинер, Клорис Личмен, Кларк Дьюк, Крис Сандерс.
Описание: Семья Крудс — самое обычное среднестатистическое семейство, живущее по своим правилам и традициям. Правда живут они не в современном мире, а в доисторические времена, когда у людей практически ничего не было и они занимались первооткрывательством. Однако глава семейства всегда считал, что все новое и неизведанное хранит в себе большую опасность, поэтому они не исследовали окружающий их мир, а спокойно жили в родных местах. Но вскоре произошло землетрясение, которое разрушило их дом, после чего Крудсы вынуждены были покинуть родную землю и отправится на поиски нового жилья. Путешествуя по красивому миру, который они никогда прежде не видели, семейство знакомится с молодым и отважным парнем по имени Гай. Именно он становится проводником Крудсов, и помогает им спастись от конца света...-Качество: BDRip 720p | Формат: MKV | HDCLUB
Видео: 1280x544 (2.35:1), 23.976 fps, x264@L4.1 ~ 6000 kbps avg
Аудио 1: Russian 48 kHz, DTS, 3/2 (L,C,R,l,r) + LFE ch, 1509.00 kbps avg | DreamWorks
Аудио 2: Ukrainian 48 kHz, AC3, 3/2 (L,C,R,l,r) + LFE ch, 448.00 kbps avg | BD EUR
Аудио 3: English 48 kHz, DTS, 3/2 (L,C,R,l,r) + LFE ch, 1509.00 kbps avg | Original
Субтитры: русские, украинские, английские .srt | Sample

Скриншоты

Медиаинфо

Общее
Формат : Matroska
Версия формата : Version 4 / Version 2
Размер файла : 6,52 Гбайт
Продолжительность : 1 ч. 38 м.
Общий поток : 9468 Кбит/сек
Название фильма : The Croods 2013
Дата кодирования : UTC 2014-03-07 20:42:09
Программа кодирования : mkvmerge v6.6.0 ('The Edge Of The In Between') built on Dec 1 2013 17:55:00
Библиотека кодирования : libebml v1.3.0 + libmatroska v1.4.1
Видео
Идентификатор : 1
Формат : AVC
Формат/Информация : Advanced Video Codec
Профиль формата : High@L4.1
Параметр CABAC формата : Да
Параметр ReFrames формата : 12 кадров
Идентификатор кодека : V_MPEG4/ISO/AVC
Продолжительность : 1 ч. 38 м.
Битрейт : 6000 Кбит/сек
Ширина : 1280 пикселей
Высота : 544 пикселя
Соотношение сторон : 2,35:1
Режим частоты кадров : Постоянный
Частота кадров : 23,976 кадра/сек
Цветовое пространство : YUV
Субдискретизация насыщенности : 4:2:0
Битовая глубина : 8 бит
Тип развёртки : Прогрессивная
Бит/(Пиксели*Кадры) : 0.359
Размер потока : 4,00 Гбайт (61%)
Заголовок : Release for HDCLUB
Библиотека кодирования : x264 core 138 r2359+704+48 3f879a0 tMod [8-bit@4:2:0 X86_64]
Настройки программы : cabac=1 / ref=12 / deblock=1:-3:-3 / analyse=0x3:0x133 / me=tesa / subme=10 / psy=1 / fade_compensate=0.00 / psy_rd=0.90:0.00 / mixed_ref=1 / me_range=24 / chroma_me=1 / trellis=2 / 8x8dct=1 / cqm=0 / deadzone=21,11 / fast_pskip=0 / chroma_qp_offset=-2 / threads=6 / lookahead_threads=1 / sliced_threads=0 / nr=0 / decimate=1 / interlaced=0 / bluray_compat=0 / constrained_intra=0 / fgo=0 / bframes=6 / b_pyramid=2 / b_adapt=2 / b_bias=0 / direct=3 / weightb=1 / open_gop=0 / weightp=2 / keyint=250 / keyint_min=23 / scenecut=40 / intra_refresh=0 / rc=2pass / mbtree=0 / bitrate=6000 / ratetol=1.0 / qcomp=0.60 / qpmin=0:0:0 / qpmax=69:69:69 / qpstep=4 / cplxblur=20.0 / qblur=0.5 / ip_ratio=1.40 / pb_ratio=1.30 / aq=1:0.90 / aq-sensitivity=10.00 / aq-factor=1.00:1.00:1.00 / aq2=0 / aq3=0 / zones=129550,141864,b=0.7
Язык : English
Default : Да
Forced : Нет
Аудио #1
Идентификатор : 2
Формат : DTS
Формат/Информация : Digital Theater Systems
Режим : 16
Параметр Endianness формата : Big
Идентификатор кодека : A_DTS
Продолжительность : 1 ч. 38 м.
Вид битрейта : Постоянный
Битрейт : 1509 Кбит/сек
Каналы : 6 каналов
Расположение каналов : Front: L C R, Side: L R, LFE
Частота : 48,0 КГц
Битовая глубина : 16 бит
Метод сжатия : С потерями
Размер потока : 1,04 Гбайт (16%)
Заголовок : DreamWorks/20th Century Fox
Язык : Russian
Default : Да
Forced : Нет
Аудио #2
Идентификатор : 3
Формат : AC-3
Формат/Информация : Audio Coding 3
Расширение режима : CM (complete main)
Параметр Endianness формата : Big
Идентификатор кодека : A_AC3
Продолжительность : 1 ч. 38 м.
Вид битрейта : Постоянный
Битрейт : 448 Кбит/сек
Каналы : 6 каналов
Расположение каналов : Front: L C R, Side: L R, LFE
Частота : 48,0 КГц
Битовая глубина : 16 бит
Метод сжатия : С потерями
Размер потока : 316 Мбайт (5%)
Заголовок : BD EUR
Язык : Ukrainian
Default : Нет
Forced : Нет
Аудио #3
Идентификатор : 4
Формат : DTS
Формат/Информация : Digital Theater Systems
Режим : 16
Параметр Endianness формата : Big
Идентификатор кодека : A_DTS
Продолжительность : 1 ч. 38 м.
Вид битрейта : Постоянный
Битрейт : 1509 Кбит/сек
Каналы : 6 каналов
Расположение каналов : Front: L C R, Side: L R, LFE
Частота : 48,0 КГц
Битовая глубина : 24 бит
Метод сжатия : С потерями
Размер потока : 1,04 Гбайт (16%)
Заголовок : Original
Язык : English
Default : Нет
Forced : Нет
Текст #1
Идентификатор : 5
Формат : UTF-8
Идентификатор кодека : S_TEXT/UTF8
Идентификатор кодека/Информация : UTF-8 Plain Text
Заголовок : Full BD EUR
Язык : Russian
Default : Нет
Forced : Нет
Текст #2
Идентификатор : 6
Формат : UTF-8
Идентификатор кодека : S_TEXT/UTF8
Идентификатор кодека/Информация : UTF-8 Plain Text
Заголовок : Full BD EUR
Язык : Ukrainian
Default : Нет
Forced : Нет
Текст #3
Идентификатор : 7
Формат : UTF-8
Идентификатор кодека : S_TEXT/UTF8
Идентификатор кодека/Информация : UTF-8 Plain Text
Заголовок : Full
Язык : English
Default : Нет
Forced : Нет
Меню
00:00:00.000 : en:00:00:00.000
00:02:34.988 : en:00:02:34.988
00:04:51.750 : en:00:04:51.750
00:09:01.249 : en:00:09:01.249
00:12:21.115 : en:00:12:21.115
00:14:04.802 : en:00:14:04.802
00:18:33.029 : en:00:18:33.029
00:21:56.982 : en:00:21:56.982
00:23:24.737 : en:00:23:24.737
00:26:49.775 : en:00:26:49.775
00:28:37.132 : en:00:28:37.132
00:30:25.657 : en:00:30:25.657
00:32:48.633 : en:00:32:48.633
00:36:03.370 : en:00:36:03.370
00:38:33.561 : en:00:38:33.561
00:41:34.534 : en:00:41:34.534
00:44:38.843 : en:00:44:38.843
00:48:02.630 : en:00:48:02.630
00:52:10.961 : en:00:52:10.961
00:55:17.481 : en:00:55:17.481
01:00:14.778 : en:01:00:14.778
01:03:58.084 : en:01:03:58.084
01:05:48.736 : en:01:05:48.736
01:08:44.037 : en:01:08:44.037
01:10:47.285 : en:01:10:47.285
01:12:37.144 : en:01:12:37.144
01:14:01.646 : en:01:14:01.646
01:19:48.575 : en:01:19:48.575
01:23:09.860 : en:01:23:09.860
01:25:16.737 : en:01:25:16.737
01:28:04.321 : en:01:28:04.321
01:30:02.230 : en:01:30:02.230

_________________
Показать сообщения:    

Текущее время: Сегодня 14:29

Часовой пояс: GMT



Вы не можете начинать темы
Вы не можете отвечать на сообщения
Вы не можете редактировать свои сообщения
Вы не можете удалять свои сообщения
Вы не можете голосовать в опросах
Вы не можете прикреплять файлы к сообщениям
Вы не можете скачивать файлы