Важное объявление!
У Нас Все раздачи мультитрекерные, при нуле пиров в релизах, можете смело вставать на закачку!
 
Автор Сообщение

HUNTER

Стаж:
4 года 4 месяца
Сообщений:
56839

Репутация: 101

[+] [-]
Вне форума [Профиль] [ЛС]

| Все релизы мультфильма || BDRip 1080p, 9.99 GB |- P R E S E N T SСемейка Крудс / The Croods-
Страна: США
Жанр: мультфильм, фэнтези, приключения, комедия, семейный
Продолжительность: 01:38:37
Год выпуска: 2013
Перевод 1: Профессиональный (полное дублирование)
Перевод 2: Авторский (одноголосый закадровый) Юрий Сербин
Перевод 3: Авторский (одноголосый закадровый) Леонид Володарский
Субтитры: есть-Режиссёр: Кирк де Микко / Kirk De Micco, Крис Сандерс / Chris Sanders
Роли озвучивали: Николас Кейдж, Эмма Стоун, Райан Рейнольдс, Кэтрин Кинер, Клорис Личмен, Кларк Дьюк, Крис Сандерс...
Роли дублировали: Дмитрий Назаров, Нюша Шурочкина, Егор Дружинин, Александра Назарова, Руслан Мещанов- | | -Описание: Землетрясение уничтожило дом доисторической семьи, и теперь Крудсам придётся искать другое пристанище. А вокруг новый и опасный мир! Им на помощь приходит молодой кочевник Малой, передовые взгляды которого наталкиваются на консервативность главы семьи Груга. Но только вместе они смогут выжить и достичь своей цели...-Доп. информация:
- BDRip 1920x816 (2.353:1) сделан с Blu-Ray диска The Croods 2013 1080p Blu-ray AVC DTS-HD MA 5.1-HDWinG.
- Перевод Юрия Сербина осуществлен в октябре 2013 г. силами форумов E180 и WIDESCREEN "Кино в Авторском переводе" по заказу: phaeton77, Nick, Multmir, denis_mgn_1987, furria62, foxlight, xerman13, ultrajeka, Кирыч, пуля, tide, safreks, Guyver, dark1982, maximus10-99, pestel, Nadoelo, markinscor, DFCbit, ilbilb, Slimka, Ramis, oleg-k, dr_akula, Savely, xfiles, luka69, DB73, Bilko, olegsoleg, lankano, ANISKIN50, carnivale, dir, 2vova2.
- Перевод Леонида Володарского осуществлен в октябре 2013 г. силами форумов E180 и WIDESCREEN "Кино в Авторском переводе" по заказу: bla_, Multmir, xerman13, ultrajeka, Nick, denis_mgn_1987, foxlight, phaeton77, Кирыч, furria62, пуля, Алекс, Guyver, Диммон, maximus10-99, Dr. Destructo, pestel, Nadoelo, Daniel Rock, DFCbit, Slimka, Lee Ray, Savely, dimavirovec, xfiles, luka69, olegsoleg, dir, фёдор александрович.
- Звуковые дорожки с переводом Ю. Сербина и Л. Володарского получены путем наложения чистых голосов на центральный канал оригинальной (английской) DTS-HD MA 7.1 дорожки - xfiles.
- Так же отдельное спасибо xfiles за подготовку субтитров.
-Сэмпл/Sample (95.8 MB, 1 минута)-Качество: BDRip 1080p
Формат: MKV
Видео: 1920x816 (2.353:1), 23,976 fps, ~8011 kbps avg, 0.213 bit/pixel
Аудио #1: Русский, DTS / 5.1 / 48 kHz / 1509 kbps / 16-bit - Дубляж | (DreamWorks/20th Century Fox)
Аудио #2: Русский, DTS / 5.1 / 48 kHz / 1509 kbps / 24-bit - AVO | Юрий Сербин
Аудио #3: Русский, DTS / 5.1 / 48 kHz / 1509 kbps / 24-bit - AVO | Леонид Володарский
Аудио #4: Украинский, AC3, 6 ch, 48 kHz, 448 kbps - Дубляж | BD EUR
Аудио #5: English, DTS / 5.1 / 48 kHz / 1509 kbps / 24-bit - Original
Субтитры: Русские (полные), Украинские (полные), English (Full, SDH)
Навигация по главам: есть (32 не именованные главы)

MediaInfo / x264Log

x264Log

raw [info]: 1920x816p 1:1 @ 24000/1001 fps (cfr)x264 [info]: using SAR=1/1x264 [info]: using cpu capabilities: MMX2 SSE2Fast SSSE3 SSE4.2 AVX XOP FMA4 FMA3 LZCNT BMI1x264 [info]: profile High, level 4.1x264 [info]: frame I:984 Avg QP:14.80 size:202525 PSNR Mean Y:49.25 U:50.95 V:50.99 Avg:49.71 Global:48.78x264 [info]: frame P:41475 Avg QP:15.98 size: 74181 PSNR Mean Y:48.13 U:50.17 V:50.09 Avg:48.67 Global:47.76x264 [info]: frame B:99404 Avg QP:18.77 size: 26646 PSNR Mean Y:47.13 U:49.67 V:49.57 Avg:47.78 Global:46.79x264 [info]: consecutive B-frames: 5.8% 5.7% 20.3% 31.7% 17.3% 16.3% 1.2% 0.5% 0.2% 0.3% 0.5%x264 [info]: mb I I16..4: 7.0% 79.0% 14.0%x264 [info]: mb P I16..4: 5.0% 27.6% 4.1% P16..4: 25.2% 23.5% 8.0% 1.3% 0.1% skip: 5.1%x264 [info]: mb B I16..4: 1.7% 5.5% 0.5% B16..8: 30.9% 16.4% 2.1% direct: 6.1% skip:36.7% L0:39.0% L1:45.0% BI:16.0%x264 [info]: 8x8 transform intra:74.0% inter:60.4%x264 [info]: coded y,uvDC,uvAC intra: 73.2% 85.9% 66.0% inter: 20.9% 19.7% 5.2%x264 [info]: i16 v,h,dc,p: 56% 8% 5% 32%x264 [info]: i8 v,h,dc,ddl,ddr,vr,hd,vl,hu: 10% 13% 13% 8% 10% 10% 11% 11% 15%x264 [info]: i4 v,h,dc,ddl,ddr,vr,hd,vl,hu: 13% 12% 18% 7% 13% 10% 11% 7% 10%x264 [info]: i8c dc,h,v,p: 43% 24% 15% 18%x264 [info]: Weighted P-Frames: Y:7.1% UV:6.0%x264 [info]: ref P L0: 58.7% 10.7% 19.8% 8.2% 2.5% 0.2%x264 [info]: ref B L0: 87.1% 10.4% 2.5%x264 [info]: ref B L1: 93.4% 6.6%x264 [info]: SSIM Mean Y:0.9889989 (19.586db)x264 [info]: PSNR Mean Y:47.440 U:49.824 V:49.734 Avg:48.051 Global:47.064 kb/s:8010.56encoded 141863 frames, 5.77 fps, 8010.56 kb/s
GeneralUnique ID : 178551253145024524458190091529902144742 (0x8653B872F304186384446A982B08BCE6)Complete name : The.Croods.2013.BDRip.1080p.dfcbit.mkvFormat : MatroskaFormat version : Version 2File size : 9.99 GiBDuration : 1h 38mnOverall bit rate : 14.5 MbpsEncoded date : UTC 2013-10-14 18:34:01Writing application : mkvmerge v4.0.0 ('The Stars were mine') built on Jun 6 2010 16:18:42Writing library : libebml v1.0.0 + libmatroska v1.0.0
VideoID : 1Format : AVCFormat/Info : Advanced Video CodecFormat profile : High@L4.1Format settings, CABAC : YesFormat settings, ReFrames : 4 framesCodec ID : V_MPEG4/ISO/AVCDuration : 1h 38mnBit rate : 8 011 KbpsWidth : 1 920 pixelsHeight : 816 pixelsDisplay aspect ratio : 2.35:1Frame rate mode : ConstantFrame rate : 23.976 fpsColor space : YUVChroma subsampling : 4:2:0Bit depth : 8 bitsScan type : ProgressiveBits/(Pixel*Frame) : 0.213Stream size : 5.52 GiB (53%)Title : NTSC, 1920x816 (2.353:1), BDRip 1080p - tRuAVC & Multfilmy [DFCbit]Writing library : x264 core 138 r2358kMod 9e941d1Encoding settings : cabac=1 / ref=4 / deblock=1:-2:-1 / analyse=0x3:0x133 / me=umh / subme=11 / psy=1 / fade_compensate=0.00 / psy_rd=0.60:0.00 / mixed_ref=1 / me_range=32 / chroma_me=1 / trellis=2 / 8x8dct=1 / cqm=0 / deadzone=21,11 / fast_pskip=0 / chroma_qp_offset=-2 / threads=12 / lookahead_threads=3 / sliced_threads=0 / nr=0 / decimate=1 / interlaced=0 / bluray_compat=0 / constrained_intra=0 / bframes=10 / b_pyramid=2 / b_adapt=2 / b_bias=0 / direct=1 / weightb=1 / open_gop=0 / weightp=2 / keyint=250 / keyint_min=23 / scenecut=40 / intra_refresh=0 / rc_lookahead=70 / rc=crf / mbtree=0 / crf=18.5400 / qcomp=0.80 / qpmin=0 / qpmax=69 / qpstep=4 / vbv_maxrate=50000 / vbv_bufsize=62500 / crf_max=0.0 / nal_hrd=none / ip_ratio=1.40 / pb_ratio=1.30 / aq=3:0.90Language : EnglishDefault : YesForced : NoColor primaries : BT.709Transfer characteristics : BT.709Matrix coefficients : BT.709
Audio #1ID : 2Format : DTSFormat/Info : Digital Theater SystemsMode : 16Format settings, Endianness : BigCodec ID : A_DTSDuration : 1h 38mnBit rate mode : ConstantBit rate : 1 509 KbpsChannel(s) : 6 channelsChannel positions : Front: L C R, Side: L R, LFESampling rate : 48.0 KHzBit depth : 16 bitsCompression mode : LossyStream size : 1.04 GiB (10%)Title : DTS / 5.1 / 48 kHz / 1509 kbps / 16-bit, Дубляж | (DreamWorks/20th Century Fox)Language : RussianDefault : YesForced : No
Audio #2ID : 3Format : DTSFormat/Info : Digital Theater SystemsMode : 16Format settings, Endianness : BigCodec ID : A_DTSDuration : 1h 38mnBit rate mode : ConstantBit rate : 1 509 KbpsChannel(s) : 6 channelsChannel positions : Front: L C R, Side: L R, LFESampling rate : 48.0 KHzBit depth : 24 bitsCompression mode : LossyStream size : 1.04 GiB (10%)Title : DTS / 5.1 / 48 kHz / 1509 kbps / 24-bit, AVO | Юрий СербинLanguage : RussianDefault : NoForced : No
Audio #3ID : 4Format : DTSFormat/Info : Digital Theater SystemsMode : 16Format settings, Endianness : BigCodec ID : A_DTSDuration : 1h 38mnBit rate mode : ConstantBit rate : 1 509 KbpsChannel(s) : 6 channelsChannel positions : Front: L C R, Side: L R, LFESampling rate : 48.0 KHzBit depth : 24 bitsCompression mode : LossyStream size : 1.04 GiB (10%)Title : DTS / 5.1 / 48 kHz / 1509 kbps / 24-bit, AVO | Леонид ВолодарскийLanguage : RussianDefault : NoForced : No
Audio #4ID : 5Format : AC-3Format/Info : Audio Coding 3Mode extension : CM (complete main)Format settings, Endianness : BigCodec ID : A_AC3Duration : 1h 38mnBit rate mode : ConstantBit rate : 448 KbpsChannel(s) : 6 channelsChannel positions : Front: L C R, Side: L R, LFESampling rate : 48.0 KHzBit depth : 16 bitsCompression mode : LossyStream size : 316 MiB (3%)Title : AC3, 6 ch, 48 kHz, 448 kbps, Дубляж | BD EURLanguage : UkrainianDefault : NoForced : No
Audio #5ID : 6Format : DTSFormat/Info : Digital Theater SystemsMode : 16Format settings, Endianness : BigCodec ID : A_DTSDuration : 1h 38mnBit rate mode : ConstantBit rate : 1 509 KbpsChannel(s) : 6 channelsChannel positions : Front: L C R, Side: L R, LFESampling rate : 48.0 KHzBit depth : 24 bitsCompression mode : LossyStream size : 1.04 GiB (10%)Title : DTS / 5.1 / 48 kHz / 1509 kbps / 24-bit, OriginalLanguage : EnglishDefault : NoForced : No
Text #1ID : 7Format : UTF-8Codec ID : S_TEXT/UTF8Codec ID/Info : UTF-8 Plain TextTitle : SRT, FullLanguage : RussianDefault : NoForced : No
Text #2ID : 8Format : UTF-8Codec ID : S_TEXT/UTF8Codec ID/Info : UTF-8 Plain TextTitle : SRT, FullLanguage : UkrainianDefault : NoForced : No
Text #3ID : 9Format : UTF-8Codec ID : S_TEXT/UTF8Codec ID/Info : UTF-8 Plain TextTitle : SRT, FullLanguage : EnglishDefault : NoForced : No
Text #4ID : 10Format : UTF-8Codec ID : S_TEXT/UTF8Codec ID/Info : UTF-8 Plain TextTitle : SRT, (SDH)Language : EnglishDefault : NoForced : No
Menu00:00:00.000 : en:Chapter 100:02:34.988 : en:Chapter 200:04:51.750 : en:Chapter 300:09:01.249 : en:Chapter 400:12:21.115 : en:Chapter 500:14:04.802 : en:Chapter 600:18:33.029 : en:Chapter 700:21:56.982 : en:Chapter 800:23:24.737 : en:Chapter 900:26:49.775 : en:Chapter 1000:28:37.132 : en:Chapter 1100:30:25.657 : en:Chapter 1200:32:48.633 : en:Chapter 1300:36:03.370 : en:Chapter 1400:38:33.561 : en:Chapter 1500:41:34.534 : en:Chapter 1600:44:38.843 : en:Chapter 1700:48:02.630 : en:Chapter 1800:52:10.961 : en:Chapter 1900:55:17.481 : en:Chapter 2001:00:14.778 : en:Chapter 2101:03:58.084 : en:Chapter 2201:05:48.736 : en:Chapter 2301:08:44.037 : en:Chapter 2401:10:47.285 : en:Chapter 2501:12:37.144 : en:Chapter 2601:14:01.646 : en:Chapter 2701:19:48.575 : en:Chapter 2801:23:09.860 : en:Chapter 2901:25:16.737 : en:Chapter 3001:28:04.321 : en:Chapter 3101:30:02.230 : en:Chapter 32

Скриншоты

Скриншот с названием мультфильма
--BDRip 1080p


Source Blu-Ray

Релиз от групп | and | -Данный релиз не будет воспроизводиться на бытовых плеерах не поддерживающих MKV и H.264Обсуждение релизов в AVC формате || Свежие AVC рипы

_________________
Показать сообщения:    

Текущее время: Сегодня 05:06

Часовой пояс: GMT



Вы не можете начинать темы
Вы не можете отвечать на сообщения
Вы не можете редактировать свои сообщения
Вы не можете удалять свои сообщения
Вы не можете голосовать в опросах
Вы не можете прикреплять файлы к сообщениям
Вы не можете скачивать файлы