Важное объявление!
У Нас Все раздачи мультитрекерные, при нуле пиров в релизах, можете смело вставать на закачку!
 
Автор Сообщение

HUNTER

Стаж:
4 года 4 месяца
Сообщений:
56842

Репутация: 101

[+] [-]
Вне форума [Профиль] [ЛС]

Семейка вампиров / Die Vampirschwestern
Страна: Германия
Жанр: фэнтези, драма, комедия, приключения, семейный
Год выпуска: 2012
Продолжительность: 01:37:33
Перевод: Профессиональный (дублированный)
Cубтитры: английские
Оригинальная аудиодорожка: немецкий
Режиссер: Вольфганг Гроос / Wolfgang Groos-В ролях: Марта Мартин, Лаура Антония Роге, Кристиана Пауль, Стипе Эрцег, Михаэль Кесслер, Рихи Мюллер, Джэйми Бик, Йонас Холденриедер, Йеремиас Мейер, Май Яблонски-Описание: В один прекрасный солнечный день, в самый обыкновенный городок, приезжает самая необыкновенная семья… Папа, мама и сестры — Дакария и Сильвения… семья вампиров! Девочкам придется привыкать к обычной жизни людей — ходить в школу, носить темные очки, использовать крем от загара… И, главное, они должны быть предельно осторожны, чтобы не выдать свою тайну…-Сэмпл: http://sendfile.su/1166898-Качество видео: BDRip
Формат видео: MKV
Видео: MPEG-4 AVC, 8150 Кбит/с, 1920x1040
Аудио: Russian / AC-3, 6 ch, 48.0 KHz, 448 Kbps
Аудио: German / DTS 48 kHz / 1509 kbps / 24-bit-

MediaInfo

Код:
Format                                   : Matroska
Format version                           : Version 2
File size                                : 6.89 GiB
Duration                                 : 1h 37mn
Overall bit rate                         : 10.1 Mbps
Movie name                               : Semejka.vampirov.2012.BDRip (1080p).tahiy
Encoded date                             : UTC 2015-10-21 17:40:58
Writing application                      : mkvmerge v5.0.1 ('Es ist Sommer') built on Oct  9 2011 11:55:43
Writing library                          : libebml v1.2.2 + libmatroska v1.3.0
DURATION                                 : 01:37:32.854000000
NUMBER_OF_FRAMES                         : 548705
NUMBER_OF_BYTES                          : 1103994528
_STATISTICS_WRITING_APP                  : mkvmerge v8.1.0 ('Psychedelic Postcard') 64bit
_STATISTICS_WRITING_DATE_UTC             : 2015-10-20 08:26:43
_STATISTICS_TAGS                         : BPS DURATION NUMBER_OF_FRAMES NUMBER_OF_BYTES
Video
ID                                       : 1
Format                                   : AVC
Format/Info                              : Advanced Video Codec
Format profile                           : High@L4.1
Format settings, CABAC                   : Yes
Format settings, ReFrames                : 4 frames
Codec ID                                 : V_MPEG4/ISO/AVC
Duration                                 : 1h 37mn
Bit rate                                 : 8 150 Kbps
Width                                    : 1 920 pixels
Height                                   : 1 040 pixels
Display aspect ratio                     : 16:9
Frame rate                               : 23.976 fps
Color space                              : YUV
Chroma subsampling                       : 4:2:0
Bit depth                                : 8 bits
Scan type                                : Progressive
Bits/(Pixel*Frame)                       : 0.170
Stream size                              : 5.41 GiB (79%)
Title                                    : Semejka.vampirov.2012.BDRip (1080p).tahiy
Writing library                          : x264 core 130 r2273 b3065e6
Encoding settings                        : cabac=1 / ref=4 / deblock=1:-2:-2 / analyse=0x3:0x113 / me=umh / subme=10 / psy=1 / psy_rd=1.00:0.20 / mixed_ref=1 / me_range=32 / chroma_me=1 / trellis=2 / 8x8dct=1 / cqm=0 / deadzone=21,11 / fast_pskip=0 / chroma_qp_offset=-3 / threads=6 / lookahead_threads=1 / sliced_threads=0 / nr=0 / decimate=0 / interlaced=0 / bluray_compat=0 / constrained_intra=0 / bframes=8 / b_pyramid=2 / b_adapt=2 / b_bias=0 / direct=3 / weightb=1 / open_gop=0 / weightp=2 / keyint=240 / keyint_min=23 / scenecut=40 / intra_refresh=0 / rc_lookahead=40 / rc=2pass / mbtree=0 / bitrate=8150 / ratetol=1.0 / qcomp=0.60 / qpmin=0 / qpmax=69 / qpstep=4 / cplxblur=20.0 / qblur=0.5 / vbv_maxrate=50000 / vbv_bufsize=62500 / nal_hrd=none / ip_ratio=1.40 / pb_ratio=1.30 / aq=1:1.00
Language                                 : German
Default                                  : Yes
Forced                                   : No
Audio #1
ID                                       : 2
Format                                   : AC-3
Format/Info                              : Audio Coding 3
Mode extension                           : CM (complete main)
Codec ID                                 : A_AC3
Duration                                 : 1h 37mn
Bit rate mode                            : Constant
Bit rate                                 : 448 Kbps
Channel(s)                               : 6 channels
Channel positions                        : Front: L C R, Side: L R, LFE
Sampling rate                            : 48.0 KHz
Bit depth                                : 16 bits
Compression mode                         : Lossy
Stream size                              : 313 MiB (4%)
Title                                    : DUB
Language                                 : Russian
Default                                  : Yes
Forced                                   : No
Audio #2
ID                                       : 3
Format                                   : DTS
Format/Info                              : Digital Theater Systems
Codec ID                                 : A_DTS
Duration                                 : 1h 37mn
Bit rate mode                            : Constant
Bit rate                                 : 1 510 Kbps
Channel(s)                               : 6 channels
Channel positions                        : Front: L C R, Side: L R, LFE
Sampling rate                            : 48.0 KHz
Bit depth                                : 16 bits
Compression mode                         : Lossy
Stream size                              : 1.03 GiB (15%)
Title                                    : GER
Language                                 : German
Default                                  : No
Forced                                   : No
Text
ID                                       : 4
Format                                   : UTF-8
Codec ID                                 : S_TEXT/UTF8
Codec ID/Info                            : UTF-8 Plain Text
Default                                  : Yes
Forced                                   : No
Menu
00:00:00.000                             : :Chapter 1
00:06:12.955                             : :Chapter 2
00:12:32.168                             : :Chapter 3
00:18:01.080                             : :Chapter 4
00:24:20.167                             : :Chapter 5
00:28:44.514                             : :Chapter 6
00:35:14.112                             : :Chapter 7

Скриншоты


_________________
Показать сообщения:    

Текущее время: Сегодня 20:22

Часовой пояс: GMT



Вы не можете начинать темы
Вы не можете отвечать на сообщения
Вы не можете редактировать свои сообщения
Вы не можете удалять свои сообщения
Вы не можете голосовать в опросах
Вы не можете прикреплять файлы к сообщениям
Вы не можете скачивать файлы
Наши партнеры: интернет магазин Ивановского трикотажа textilla.ru