Важное объявление!
У Нас Все раздачи мультитрекерные, при нуле пиров в релизах, можете смело вставать на закачку!
 
Автор Сообщение

HUNTER

Стаж:
4 года 4 месяца
Сообщений:
56822

Репутация: 101

[+] [-]
Вне форума [Профиль] [ЛС]

Секс и Любовь! Развратная битва Ангелов и Демонов / Nuki Doki! Tenshi to Akuma no
Год производства: 2013
Страна: Япония
Жанр: хентай
Серии: ep. 1 of ?
Продолжительность: ~30 мин.
Режиcсёр: неизвестно-Субтитры : Отсутствуют
Перевод : Любительский(RUS - одноголосный, закадровый [VashMax2])
Цензура : Присутствует-Описание: Нелегка жизнь ОЯШ’а. Ямато проводил свои дни в скуке, пока однажды перед ним не появились ангелы и демоны. Их долгая вражда порядком всем надоела, поэтому люди были выбраны в качестве третьей стороны в мирных переговорах. А Ямато, разумеется, представителем людей. Контракт подписан,
симпатичный ангел Сара Митра Айрун оставлена от ангелов, сексуальный демон Фирика Мия Сатана от демонов. Странно, но весьма приятно, считал герой. Вскоре Фирика, чтобы перетянуть героя на свою сторону, занялась с ним сексом. Прилетевший следом ангелочек Сара попала в ловушку и лишилась девственности. Тем самым Ямато вовлек мир людей в развратное противостояние между демонами и ангелами! Как сложится судьба героя, окруженного четырьмя красивыми девушками?-Качество : WebRip
Формат : FLV
Видео : AVC, 720x480, ~24fps, 821 Kbps
Аудио: MP3, 44100Hz stereo, 32.0 Kbps

MediaInfo

General
Format : Flash Video
File size : 189 MiB
Duration : 29mn 26s
Overall bit rate : 897 Kbps
width : 720
Video
Format : AVC
Format/Info : Advanced Video Codec
Format profile : [url=mailto:High@L3.0]High@L3.0[/url]
Format settings, CABAC : Yes
Format settings, ReFrames : 4 frames
Codec ID : 7
Duration : 29mn 26s
Bit rate : 821 Kbps
Nominal bit rate : 748 Kbps
Width : 720 pixels
Height : 480 pixels
Display aspect ratio : 3:2
Frame rate mode : Constant
Frame rate : 1 000.000 fps
Original frame rate : 24.000 fps
Standard : NTSC
Color space : YUV
Chroma subsampling : 4:2:0
Bit depth : 8 bits
Scan type : Progressive
Bits/(Pixel*Frame) : 0.002
Stream size : 173 MiB (91%)
Writing library : x264 core 125 r2200 999b753
Encoding settings : cabac=1 / ref=4 / deblock=1:-2:-2 / analyse=0x3:0x113 / me=umh / subme=6 / psy=1 / psy_rd=1.00:0.25 / mixed_ref=1 / me_range=16 / chroma_me=1 / trellis=1 / 8x8dct=1 / cqm=0 / deadzone=6,6 / fast_pskip=1 / chroma_qp_offset=-4 / threads=6 / lookahead_threads=1 / sliced_threads=0 / nr=0 / decimate=0 / interlaced=0 / bluray_compat=0 / constrained_intra=0 / bframes=5 / b_pyramid=2 / b_adapt=1 / b_bias=0 / direct=3 / weightb=1 / open_gop=0 / weightp=2 / keyint=75 / keyint_min=7 / scenecut=40 / intra_refresh=0 / rc_lookahead=30 / rc=2pass / mbtree=1 / bitrate=748 / ratetol=1.0 / qcomp=0.80 / qpmin=0 / qpmax=69 / qpstep=4 / cplxblur=20.0 / qblur=0.5 / vbv_maxrate=1272 / vbv_bufsize=3815 / nal_hrd=none / ip_ratio=1.10 / aq=1:0.50
Audio
Format : MPEG Audio
Format version : Version 1
Format profile : Layer 3
Mode : Joint stereo
Mode extension : MS Stereo
Codec ID : 2
Codec ID/Hint : MP3
Duration : 29mn 26s
Bit rate mode : Constant
Bit rate : 32.0 Kbps
Channel(s) : 2 channels
Sampling rate : 44.1 KHz
Compression mode : Lossy
Delay relative to video : 83ms
Stream size : 6.74 MiB (4%)
Writing library : LAME3.99.5

_________________
Показать сообщения:    

Текущее время: Сегодня 01:48

Часовой пояс: GMT



Вы не можете начинать темы
Вы не можете отвечать на сообщения
Вы не можете редактировать свои сообщения
Вы не можете удалять свои сообщения
Вы не можете голосовать в опросах
Вы не можете прикреплять файлы к сообщениям
Вы не можете скачивать файлы