Важное объявление!
У Нас Все раздачи мультитрекерные, при нуле пиров в релизах, можете смело вставать на закачку!
 
Автор Сообщение

HUNTER

Стаж:
4 года 4 месяца
Сообщений:
56772

Репутация: 101

[+] [-]
Вне форума [Профиль] [ЛС]

Секреты Супербрендов / Secrets of the Superbrands
Дата/Год выпуска: 2011
Страна: Великобритания
Жанр: документальный
Продолжительность: 00:58:00
Перевод: Одноголосый закадровый ViruseProject
Русские субтитры: нет
Оригинальная аудиодорожка: нет
Режиссер: Lisa Dunn
Телеканал: ВВС
Описание: Alex Riley считает, что он не подвержен влиянию моды. Когда речь идет о модной одежде, технических новинках или еде, он покупает самое дешевое, или то, что ему больше подходит. С помощью маркетологов, нейробиологов и эксклюзивного доступа в мир супербрендов, он пытается узнать, почему мы доверяем им, покупаем их продукцию и даже обожествляем их.


Закадровое озвучание: Владислав Данилов
Перевод: noxx, Fasah0v, Meskalin75, atl86, Alyona_Jensen
Сведение звука: viruse (Виталий Емельянов)
смотреть СЕМПЛ озвучания на youtube
Сэмпл: http://multi-up.com/990144
качество: PDTVRip
формат: AVI
Видео: 720x416 (1.73:1), 25 fps, XviD build 50 ~1585 kbps avg, 0.21 bit/pixel
Аудио: 48 kHz, MPEG Layer 3, 2 ch, ~192.00 kbps avg

MediaInfo

D:\ОЗВУЧКА\ТЕЛЕПЕРЕДАЧИ\Secrets.of.the.Superbrands.ViruseProject\Secrets.of.the.Superbrands.ViruseProject\Secrets.of.the.Superbrands.01.ViruseProject.avi General Complete name : D:\ОЗВУЧКА\ТЕЛЕПЕРЕДАЧИ\Secrets.of.the.Superbrands.ViruseProject\Secrets.of.the.Superbrands.ViruseProject\Secrets.of.the.Superbrands.01.ViruseProject.avi Format : AVI Format/Info : Audio Video Interleave File size : 733 MiB Duration : 57mn 18s Overall bit rate : 1 787 Kbps Writing application : VirtualDubMod 1.5.10.2 (build 2540/release) Writing library : VirtualDubMod build 2540/release Video #0 ID : 0 Format : MPEG-4 Visual Format profile : Advanced Simple@L5 Format settings, BVOP : 1 Format settings, QPel : No Format settings, GMC : No warppoints Format settings, Matrix : Default (MPEG) Codec ID : XVID Codec ID/Hint : XviD Duration : 57mn 18s Bit rate : 1 585 Kbps Width : 720 pixels Height : 416 pixels Display aspect ratio : 1.731 Frame rate : 25.000 fps Color space : YUV Chroma subsampling : 4:2:0 Bit depth : 8 bits Scan type : Progressive Compression mode : Lossy Bits/(Pixel*Frame) : 0.212 Stream size : 650 MiB (89%) Writing library : XviD 1.2.1 (UTC 2008-12-04) Audio #1 ID : 1 Format : MPEG Audio Format version : Version 1 Format profile : Layer 3 Mode : Joint stereo Mode extension : MS Stereo Codec ID : 55 Codec ID/Hint : MP3 Duration : 57mn 18s Bit rate mode : Constant Bit rate : 192 Kbps Channel count : 2 channels Sampling rate : 48.0 KHz Compression mode : Lossy Stream size : 78.7 MiB (11%) Alignment : Split accross interleaves Interleave, duration : 40 ms (1.00 video frame) Interleave, preload duration : 500 ms

Скриншоты


_________________
Показать сообщения:    

Текущее время: Сегодня 17:21

Часовой пояс: GMT



Вы не можете начинать темы
Вы не можете отвечать на сообщения
Вы не можете редактировать свои сообщения
Вы не можете удалять свои сообщения
Вы не можете голосовать в опросах
Вы не можете прикреплять файлы к сообщениям
Вы не можете скачивать файлы