Важное объявление!
У Нас Все раздачи мультитрекерные, при нуле пиров в релизах, можете смело вставать на закачку!
 
Автор Сообщение

HUNTER

Стаж:
4 года 4 месяца
Сообщений:
56749

Репутация: 101

[+] [-]
Вне форума [Профиль] [ЛС]

Секретные материалы: Хочу верить / The X-Files: I Want to Believe
Страна: США, Канада
Жанр: триллер, драма
Год выпуска: 2008
Продолжительность: 01:35:54
Перевод: Профессиональный (дублированный)
Cубтитры: нет
Оригинальная аудиодорожка: нет
Режиссер: Крис Картер / Chris Carter
В ролях: Дэвид Духовны, Джиллиан Андерсон, Аманда Пит, Билли Коннолли, Иксзибит, Митч Пилледжи, Каллум Кит Ренни, Адам Годли, Алекс Дьякун, Никки Эйкокс, Фагин Вудкок, Марко Никколи, Кэрри Ручински, Спенсер Мэйби, Вероника Хадрава, Дэннис Крассноголов, Патрик Китинг, Роджер Хорчоу, Стивен Е. Миллер, Ксанта Рэдли, Лорена Гэйл, Донаван Стинсон, Дайон Джонстоун, Сара-Джейн Редмонд, Кристина Д’Алимонте, Ванеса Томасино, Лувия Петерсен, Бабс Чула, Марси Т. Хаус, Джозеф Патрик Финн, Бет Сиглер, Стэйси Коуплэнд, Том Чаррон
Описание: Пропадает без вести сотрудница ФБР, и последней надеждой её коллег становятся Фокс Малдер и Дана Скалли, бывшие специальные агенты, вынужденно, хотя и по разным причинам, оставившие службу. Единственным человеком, дающим следствию хоть какую-то информацию, является престарелый Джозеф Криссман, в прошлом священник, отбывший наказание за совращение малолетних, который уверяет, что картины совершённых преступлений непроизвольно — «по воле Бога» — возникают в его сознании…
Доп. информация: HDTV имеет иное наполнение кадра, чем DVD и BD - http://screenshotcomparison.com/comparison/74067
Сэмпл: http://multi-up.com/983969
Тип релиза: HDTV 1080i
Контейнер: TS
Видео: AVC, 1920x1080 (16/9), 25.000 fps, 12.0 Mbps (0.231 bit/pixel)
Аудио: MP2, 48.0 KHz, 2 ch, 192 Kbps, CBR (Russian)
MediaInfo
Общее
Идентификатор : 3 (0x3)
Полное имя : K:\Секретные материалы. Хочу верить.ts
Формат : MPEG-TS
Размер файла : 8,77 Гбайт
Продолжительность : 1 ч. 35 м.
Режим общего битрейта : Переменный
Общий поток : 13,1 Мбит/сек
Видео
Идентификатор : 2141 (0x85D)
Идентификатор меню : 21004 (0x520C)
Формат : AVC
Формат/Информация : Advanced Video Codec
Профиль формата : Main@L4.0
Параметр CABAC формата : Да
Параметр ReFrames формата : 3 кадра
Идентификатор кодека : 27
Продолжительность : 1 ч. 35 м.
Битрейт : 12,3 Мбит/сек
Ширина : 1920 пикселей
Высота : 1080 пикселей
Соотношение сторон : 16:9
Частота кадров : 25,000 кадров/сек
Стандарт вещания : Component
Цветовое пространство : YUV
Субдискретизация насыщенности : 4:2:0
Битовая глубина : 8 бит
Тип развёртки : Чересстрочная
Порядок развёртки : Верхнее поле первое
Бит/(Пиксели*Кадры) : 0.236
Размер потока : 8,21 Гбайт (94%)
Основные цвета : BT.709
Характеристики трансфера : BT.709
Коэффициенты матрицы : BT.709
Аудио
Идентификатор : 2142 (0x85E)
Идентификатор меню : 21004 (0x520C)
Формат : MPEG Audio
Версия формата : Version 1
Профиль формата : Layer 2
Идентификатор кодека : 4
Продолжительность : 1 ч. 35 м.
Вид битрейта : Постоянный
Битрейт : 192 Кбит/сек
Каналы : 2 канала
Частота : 48,0 КГц
Метод сжатия : С потерями
Задержка видео : -9 мс.
Размер потока : 132 Мбайт (1%)
Язык : Russian
Скриншоты

_________________
Показать сообщения:    

Текущее время: Сегодня 03:10

Часовой пояс: GMT



Вы не можете начинать темы
Вы не можете отвечать на сообщения
Вы не можете редактировать свои сообщения
Вы не можете удалять свои сообщения
Вы не можете голосовать в опросах
Вы не можете прикреплять файлы к сообщениям
Вы не можете скачивать файлы