Важное объявление!
У Нас Все раздачи мультитрекерные, при нуле пиров в релизах, можете смело вставать на закачку!
 
Автор Сообщение

vansizov

Стаж:
3 года 5 месяцев
Сообщений:
1
Вне форума [Профиль] [ЛС]

Секретные материалы / The X-Files / Сезоны: 1-9 / [1993-2002]
X-Files Complete Collector's Edition
Год выпуска: 1993-2002
Страна: США
Жанр: Драма, Мистика, Детектив
Продолжительность: ~44:00 мин
Перевод: Многоголосый закадровый - RenTV
Русские субтитры: есть
Автор перевода: lostrator
Субтитры: 1-7 сезоны
Режиссёр:
Крис Картер/Chris Carter
В ролях:
Дэвид Духовны, Джиллиан Андерсон, Митч Пилегги,
Уильям Б. Дэвис, Том Брэйдвуд, Дин Хаглунд, Брюс Харвуд
The X-Files — культовый американский научно-фантастический телесериал, созданный Крисом Картером. Премьерный показ стартовал в эфире 10 сентября 1993 года и завершился через 9 лет, 19 мая 2002 года. За это время было снято 201 серия.
Шоу было хитом телеканала FOX; его символика и теглайны, такие как
«The Truth Is Out There», «Trust No One», «I Want to Believe» были особенно популярны в поп-культуре 1990-х. Являясь своеобразной вехой эпохи, ключевые сюжетные темы
«Секретных материалов» основываются на недоверии общества к правительству, охватывают теорию заговора и сосредоточены на попытках раскрыть информацию о существовании внеземных цивилизаций.
В сериале, спецагенты ФБР Фокс Малдер (Fox Mulder) и Дана Скалли (Dana Scully) работают в отделе X-Files, специализирующемся на странных нерешенных делах, связанных с паранормальными явлениями. Малдер верит в существование инопланетян и прочие сверхъестественные вещи, в то время как Скалли, по своей натуре являясь скептиком, пропагандирует во всем научный подход, и зачастую не соглашается с теориями своего напарника.
Качество: DVDRip
Формат: MKV
Видео кодек: H.264
Аудио кодек: AC3
Видео:
H264 720x480p @ 4:3/16:9 (640x480p/853x480p),
23,976fps, ~2,300 Mbps, Bits/(Pixel*Frame): 0.262
Аудио 1: AC3 CBR 128Kbps 48KHz stereo (Rus)
Аудио 2: AC3 CBR 192Kbps 48KHz stereo (Eng)

Скриншоты

Ссылка на предыдущие и альтернативные раздачи:

Все раздачи сериала

MediaInfo

Секретные материалы - The X-Files\XF4\405 - The Field Where I Died.mkv
General
Unique ID : 175610946151601196474064394888746619522 (0x841D701F2A7A3C57975EAE2217BFD282)
Complete name : L:\Секретные материалы - The X-Files\Секретные материалы - The X-Files\XF4\405 - The Field Where I Died.mkv
Format : Matroska
Format version : Version 2
File size : 816 MiB
Duration : 44mn 48s
Overall bit rate mode : Variable
Overall bit rate : 2 545 Kbps
Encoded date : UTC 2012-05-18 18:45:49
Writing application : mkvmerge v5.5.0 ('Healer') built on Apr 24 2012 23:47:03
Writing library : libebml v1.2.3 + libmatroska v1.3.0
Video #1
ID : 1
Format : AVC
Format/Info : Advanced Video Codec
Format profile : High@L3.2
Format settings, CABAC : Yes
Format settings, ReFrames : 8 frames
Muxing mode : Header stripping
Codec ID : V_MPEG4/ISO/AVC
Duration : 44mn 48s
Bit rate mode : Variable
Bit rate : 2 174 Kbps
Maximum bit rate : 40.0 Mbps
Width : 720 pixels
Height : 480 pixels
Display aspect ratio : 4:3
Frame rate : 23.976 fps
Standard : NTSC
Color space : YUV
Chroma subsampling : 4:2:0
Bit depth : 8 bits
Scan type : Progressive
Bits/(Pixel*Frame) : 0.262
Stream size : 697 MiB (85%)
Writing library : x264 core 115 r1995 c1e60b9
Encoding settings : cabac=1 / ref=8 / deblock=1:-1:-1 / analyse=0x3:0x133 / me=umh / subme=9 / psy=1 / psy_rd=1.00:0.15 / mixed_ref=1 / me_range=16 / chroma_me=1 / trellis=2 / 8x8dct=1 / cqm=0 / deadzone=21,11 / fast_pskip=1 / chroma_qp_offset=-3 / threads=2 / sliced_threads=0 / nr=0 / decimate=1 / interlaced=0 / bluray_compat=0 / constrained_intra=0 / bframes=3 / b_pyramid=2 / b_adapt=2 / b_bias=0 / direct=3 / weightb=1 / open_gop=0 / weightp=2 / keyint=250 / keyint_min=23 / scenecut=40 / intra_refresh=0 / rc_lookahead=60 / rc=crf / mbtree=1 / crf=18.0 / qcomp=0.60 / qpmin=0 / qpmax=69 / qpstep=4 / ip_ratio=1.40 / aq=1:1.0
Default : Yes
Forced : No
Audio #2
ID : 2
Format : AC-3
Format/Info : Audio Coding 3
Mode extension : CM (complete main)
Muxing mode : Header stripping
Codec ID : A_AC3
Duration : 44mn 48s
Bit rate mode : Constant
Bit rate : 128 Kbps
Channel(s) : 2 channels
Channel positions : Front: L R
Sampling rate : 48.0 KHz
Bit depth : 16 bits
Compression mode : Lossy
Stream size : 41.0 MiB (5%)
Language : Russian
Default : Yes
Forced : No
Audio #3
ID : 3
Format : AC-3
Format/Info : Audio Coding 3
Format profile : Dolby Digital
Mode extension : CM (complete main)
Muxing mode : Header stripping
Codec ID : A_AC3
Duration : 44mn 48s
Bit rate mode : Constant
Bit rate : 192 Kbps
Channel(s) : 2 channels
Channel positions : Front: L R
Sampling rate : 48.0 KHz
Bit depth : 16 bits
Compression mode : Lossy
Stream size : 61.5 MiB (8%)
Language : English
Default : No
Forced : No
Text #4
ID : 4
Format : UTF-8
Codec ID : S_TEXT/UTF8
Codec ID/Info : UTF-8 Plain Text
Language : Russian
Default : No
Forced : No
Собрано для любителей формата MKV с Русской дорожкой (по умолчанию) + Оригинальная и рус. субтитры-
Показать сообщения:    

Текущее время: Сегодня 12:53

Часовой пояс: GMT



Вы не можете начинать темы
Вы не можете отвечать на сообщения
Вы не можете редактировать свои сообщения
Вы не можете удалять свои сообщения
Вы не можете голосовать в опросах
Вы не можете прикреплять файлы к сообщениям
Вы не можете скачивать файлы
Наши партнеры: интернет магазин Ивановского трикотажа textilla.ru