Важное объявление!
У Нас Все раздачи мультитрекерные, при нуле пиров в релизах, можете смело вставать на закачку!
 
Автор Сообщение

HUNTER

Стаж:
4 года 4 месяца
Сообщений:
56809

Репутация: 101

[+] [-]
Вне форума [Профиль] [ЛС]

Секретная служба Санта-Клауса / Arthur Christmas-Год выпуска: 2011
Страна: США, Великобритания, Sony Pictures Animation
Жанр: Мультфильм, драма, комедия, семейный
Продолжительность: 01:37:32
Перевод: Дублированный (лицензия)
Субтитры: Русские, английские-В ролях: Джеймс МакЭвой, Хью Лори, Билл Найи, Джим Броудбент, Имелда Стонтон, Эшли Дженсен, Марк Вуттон, Лора Линни, Ева Лонгория, Рамона Маркес
Режиссёр: Сара Смит, Бэрри Кук-Описание: Рождественский мультфильм "Секретная служба Санта-Клауса" обещает подарить Вам предпраздничное настроение и порадовать новыми идеями. Здесь, наряду со старыми общепринятыми тенденциями, присутствуют модерные вкрапления, о которых мы раньше не слышали. Это, например, то, что у Санты есть сын, который, честно сказать, ну так себе, чудаковатый какой-то. И еще важная деталь, знали ли вы, что Санта Клаус летает не на оленях, а на космическом корабле? Нет? Теперь будете знать! В картине раскроется секрет того, как Санта успевает за ночь развезти все подарки...-Качество: BDRip (1080p)
Формат: MKV
Видео кодек: AVC
Аудио кодек: AC3, DTS
Видео: MPEG4-AVC, 1920x1040 at 23.976 fps, [url=mailto:x264@L4.1]x264@L4.1[/url], ~10.7 Mbps avg
Аудио 1: Русский (AC3, 6 ch, 640 Кбит/c)
Аудио 2: Украинский (AC3, 6 ch, 640 Кбит/c)
Аудио 3: Английский (DTS, 6 ch, 1536 Кбит/c)-

Рейтинг

Рейтинг:

Media.Info

Общее
Уникальный идентификатор : 221406677175338184698519334983083233076 (0xA6915FFC74CAB0D89B96330135C40F34)
Полное имя : H:\Rustorka\BDRip 1080p\Arthur.Christmas.2011.1080p.BluRay.Rus.Ukr.Eng..mkv
Формат : Matroska
Версия формата : Version 2
Размер файла : 9,19 Гбайт
Продолжительность : 1 ч. 37 м.
Общий поток : 13,5 Мбит/сек
Название фильма : Arthur Christmas (2011) - Release for HDCLUB
Дата кодирования : UTC 2012-11-11 20:38:45
Программа кодирования : mkvmerge v3.4.0 ('Rapunzel') built on May 15 2010 09:38:20
Библиотека кодирования : libebml v0.8.0 + libmatroska v0.9.0
Видео
Идентификатор : 1
Формат : AVC
Формат/Информация : Advanced Video Codec
Профиль формата : [url=mailto:High@L4.1]High@L4.1[/url]
Параметр CABAC формата : Да
Параметр ReFrames формата : 4 кадра
Идентификатор кодека : V_MPEG4/ISO/AVC
Продолжительность : 1 ч. 37 м.
Битрейт : 10,7 Мбит/сек
Ширина : 1920 пикселей
Высота : 1040 пикселей
Соотношение сторон : 1,85:1
Режим частоты кадров : Постоянный
Частота кадров : 23,976 кадра/сек
Цветовое пространство : YUV
Субдискретизация насыщенности : 4:2:0
Битовая глубина : 8 бит
Тип развёртки : Прогрессивная
Бит/(Пиксели*Кадры) : 0.223
Размер потока : 7,11 Гбайт (77%)
Заголовок : Release for HDCLUB
Библиотека кодирования : x264 core 128 r2216+688+33 06dac27 tMod+MixAQ [8-bit@4:2:0 X86_64]
Настройки программы : cabac=1 / ref=4 / deblock=1:-1:-1 / analyse=0x3:0x113 / me=umh / subme=11 / psy=1 / fade_compensate=0.00 / psy_rd=0.90:0.00 / mixed_ref=1 / me_range=48 / chroma_me=1 / trellis=2 / 8x8dct=1 / cqm=0 / deadzone=21,11 / fast_pskip=0 / chroma_qp_offset=-2 / threads=18 / lookahead_threads=3 / sliced_threads=0 / nr=0 / decimate=0 / interlaced=0 / bluray_compat=0 / constrained_intra=0 / fgo=0 / bframes=8 / b_pyramid=2 / b_adapt=2 / b_bias=0 / direct=3 / weightb=1 / open_gop=0 / weightp=2 / keyint=240 / keyint_min=24 / scenecut=40 / intra_refresh=0 / rc_lookahead=240 / rc=2pass / mbtree=1 / bitrate=10700 / ratetol=1.0 / qcomp=0.70 / qpmin=0 / qpmax=69 / qpstep=4 / cplxblur=20.0 / qblur=0.5 / ip_ratio=1.15 / aq=4 / aq-strength=1.05 / aq-sensitivity=10.00 / aq-ifactor=1.00 / aq-pfactor=1.00 / aq-bfactor=1.00 / aq2=0
Язык : English
Default : Нет
Forced : Нет
Аудио #1
Идентификатор : 2
Формат : AC-3
Формат/Информация : Audio Coding 3
Расширение режима : CM (complete main)
Параметр Endianness формата : Big
Идентификатор кодека : A_AC3
Продолжительность : 1 ч. 37 м.
Вид битрейта : Постоянный
Битрейт : 640 Кбит/сек
Каналы : 6 каналов
Расположение каналов : Front: L C R, Side: L R, LFE
Частота : 48,0 КГц
Битовая глубина : 16 бит
Метод сжатия : С потерями
Размер потока : 447 Мбайт (5%)
Заголовок : AC3 5.1 @ 640 kbps - Дублированный, Blu-ray
Язык : Russian
Default : Да
Forced : Нет
Аудио #2
Идентификатор : 3
Формат : AC-3
Формат/Информация : Audio Coding 3
Расширение режима : CM (complete main)
Параметр Endianness формата : Big
Идентификатор кодека : A_AC3
Продолжительность : 1 ч. 37 м.
Вид битрейта : Постоянный
Битрейт : 640 Кбит/сек
Каналы : 6 каналов
Расположение каналов : Front: L C R, Side: L R, LFE
Частота : 48,0 КГц
Битовая глубина : 16 бит
Метод сжатия : С потерями
Размер потока : 447 Мбайт (5%)
Заголовок : AC3 5.1 @ 640 kbps - Дублированный, Blu-ray
Язык : Ukrainian
Default : Нет
Forced : Нет
Аудио #3
Идентификатор : 4
Формат : DTS
Формат/Информация : Digital Theater Systems
Режим : 16
Параметр Endianness формата : Big
Идентификатор кодека : A_DTS
Продолжительность : 1 ч. 37 м.
Вид битрейта : Постоянный
Битрейт : 1509 Кбит/сек
Каналы : 6 каналов
Расположение каналов : Front: L C R, Side: L R, LFE
Частота : 48,0 КГц
Битовая глубина : 16 бит
Метод сжатия : С потерями
Задержка видео : 11 мс.
Размер потока : 1,03 Гбайт (11%)
Заголовок : DTS 5.1 @ 1536 kbps
Язык : English
Default : Нет
Forced : Нет
Текст #1
Идентификатор : 5
Формат : UTF-8
Идентификатор кодека : S_TEXT/UTF8
Идентификатор кодека/Информация : UTF-8 Plain Text
Язык : Russian
Default : Нет
Forced : Нет
Текст #2
Идентификатор : 6
Формат : UTF-8
Идентификатор кодека : S_TEXT/UTF8
Идентификатор кодека/Информация : UTF-8 Plain Text
Язык : English
Default : Нет
Forced : Нет
Текст #3
Идентификатор : 7
Формат : UTF-8
Идентификатор кодека : S_TEXT/UTF8
Идентификатор кодека/Информация : UTF-8 Plain Text
Язык : English
Default : Нет
Forced : Нет
Меню
00:00:00.000 : en:00:00:00.000
00:04:37.777 : en:00:04:37.777
00:08:52.615 : en:00:08:52.615
00:16:27.153 : en:00:16:27.153
00:19:48.729 : en:00:19:48.729
00:23:23.819 : en:00:23:23.819
00:28:59.321 : en:00:28:59.321
00:33:28.924 : en:00:33:28.924
00:39:22.277 : en:00:39:22.277
00:44:45.558 : en:00:44:45.558
00:52:49.375 : en:00:52:49.375
00:58:48.942 : en:00:58:48.942
01:06:00.290 : en:01:06:00.290
01:13:49.342 : en:01:13:49.342
01:20:36.957 : en:01:20:36.957
01:29:48.174 : en:01:29:48.174

Скриншоты


_________________
Показать сообщения:    

Текущее время: Сегодня 19:18

Часовой пояс: GMT



Вы не можете начинать темы
Вы не можете отвечать на сообщения
Вы не можете редактировать свои сообщения
Вы не можете удалять свои сообщения
Вы не можете голосовать в опросах
Вы не можете прикреплять файлы к сообщениям
Вы не можете скачивать файлы