Важное объявление!
У Нас Все раздачи мультитрекерные, при нуле пиров в релизах, можете смело вставать на закачку!
 
Автор Сообщение

HUNTER

Стаж:
4 года 4 месяца
Сообщений:
56772

Репутация: 101

[+] [-]
Вне форума [Профиль] [ЛС]

| Все релизы мультфильма || BDRip 720p, 4.08 GB |- P R E S E N T SСекретная миссия Санты / The Magic Crystal / Maaginen kristalli-
Страна: Финляндия, Бельгия
Жанр: мультфильм, фэнтези, приключения, семейный
Продолжительность: 01:15:55
Год выпуска: 2011
Перевод: Профессиональный (двухголосый закадровый) Студия "Баритон"
Субтитры: русских нет-Режиссёр: Антти Хаикала / Antti Haikala
Роли озвучивали: Юкка Нилунд, Паула Весала, Кити Кокконен, Веэти Каллио, Антти Яакола, Хенни-Лииса Стам, Йон Йон Гейтель, Аапо Хаикала, Вейкко Хонканен, Мария Кемппайнен, Майя-Лииса Пеуху, Аарни Хуокки, Юхани Раджалин, Минна Тасанто...- | | -Описание: Анимационный фильм рассказывает историю похищения волшебного кристалла Санты. Магический камень позволял поздравить с Рождеством всех детей в мире одновременно и теперь Санта не знает, как быть. Преступный замысел удалось реализовать отвратительному брату-близнецу Санты Бэзилу. Немаловажную роль в этом деле сыграл сирота Йотэн. К счастью, мальчик вовремя осознает свою ошибку и попытается исправить ситуацию. Но удастся ли ему вернуть все на свои места? Сможет ли Санта поздравить с Рождеством детей во всем мире?...-Доп. информация: BDRip 720p сделан с Blu-Ray диска The Magic Crystal 2011 2D+3D 1080p Blu-Ray AVC DTS-HD MA 5.1-HDChina (German Transfer).
Отдельное спасибо xfiles за подготовку русской звуковой дорожки.
-Сэмпл/Sample (66.37 MB, 1 минута)-Качество: BDRip 720p
Формат: MKV
Видео: 1280x692 (1.850:1), 23,976 fps, ~6724 kbps avg, 0.316 bit/pixel
Аудио #1: Русский, AC3, 2 ch, 48 kHz, 192 kbps - DVO | Студия "Баритон"
Аудио #2: English, DTS / 5.1 / 48 kHz / 768 kbps / 16-bit - Dubbing
Субтитры: German (Full)
Навигация по главам: есть (12 не именованных глав)

MediaInfo / x264Log

x264Log
raw [info]: 1280x692p 1:1 @ 24000/1001 fps (cfr)x264 [info]: using SAR=1/1x264 [info]: using cpu capabilities: MMX2 SSE2Fast SSSE3 SSE4.2 AVX XOP FMA4 FMA3 LZCNT BMI1x264 [info]: profile High, level 4.1x264 [info]: frame I:722 Avg QP:16.30 size:120913 PSNR Mean Y:46.83 U:50.28 V:49.40 Avg:47.48 Global:46.77x264 [info]: frame P:25565 Avg QP:17.71 size: 62907 PSNR Mean Y:45.83 U:49.76 V:48.97 Avg:46.51 Global:45.78x264 [info]: frame B:82918 Avg QP:19.92 size: 25725 PSNR Mean Y:44.40 U:49.01 V:47.98 Avg:45.20 Global:44.35x264 [info]: consecutive B-frames: 4.0% 3.6% 9.7% 15.3% 10.8% 49.3% 3.4% 0.7% 1.1% 0.5% 0.4% 0.4% 0.3% 0.6%x264 [info]: mb I I16..4: 8.1% 74.2% 17.7%x264 [info]: mb P I16..4: 2.4% 32.4% 3.4% P16..4: 20.4% 24.8% 10.3% 1.0% 0.1% skip: 5.1%x264 [info]: mb B I16..4: 0.3% 4.4% 0.4% B16..8: 29.8% 26.9% 6.4% direct: 7.0% skip:24.8% L0:44.6% L1:40.2% BI:15.2%x264 [info]: 8x8 transform intra:84.3% inter:59.4%x264 [info]: coded y,uvDC,uvAC intra: 88.8% 91.4% 76.6% inter: 37.0% 29.9% 7.7%x264 [info]: i16 v,h,dc,p: 14% 8% 8% 70%x264 [info]: i8 v,h,dc,ddl,ddr,vr,hd,vl,hu: 9% 8% 12% 10% 12% 11% 12% 11% 13%x264 [info]: i4 v,h,dc,ddl,ddr,vr,hd,vl,hu: 27% 9% 7% 7% 12% 10% 11% 8% 10%x264 [info]: i8c dc,h,v,p: 38% 26% 17% 19%x264 [info]: Weighted P-Frames: Y:3.6% UV:2.7%x264 [info]: ref P L0: 44.0% 11.1% 19.1% 7.1% 6.1% 3.9% 3.8% 2.2% 2.3% 0.4% 0.0%x264 [info]: ref B L0: 74.2% 11.8% 5.7% 3.1% 2.2% 1.8% 1.0% 0.4%x264 [info]: ref B L1: 93.6% 6.4%x264 [info]: SSIM Mean Y:0.9767776 (16.341db)x264 [info]: PSNR Mean Y:44.749 U:49.196 V:48.224 Avg:45.520 Global:44.660 kb/s:6724.53encoded 109205 frames, 5.81 fps, 6724.53 kb/s
GeneralUnique ID : 175419681081656749029203221794385230068 (0x83F89A0696259709A974710FB966F8F4)Complete name : The.Magic.Crystal.2011.Ger.Video.BDRip.720p.dfcbit.mkvFormat : MatroskaFormat version : Version 2File size : 4.08 GiBDuration : 1h 15mnOverall bit rate : 7 687 KbpsEncoded date : UTC 2014-09-28 05:00:35Writing application : mkvmerge v4.0.0 ('The Stars were mine') built on Jun 6 2010 16:18:42Writing library : libebml v1.0.0 + libmatroska v1.0.0
VideoID : 1Format : AVCFormat/Info : Advanced Video CodecFormat profile : High@L4.1Format settings, CABAC : YesFormat settings, ReFrames : 9 framesCodec ID : V_MPEG4/ISO/AVCDuration : 1h 15mnBit rate : 6 724 KbpsWidth : 1 280 pixelsHeight : 692 pixelsDisplay aspect ratio : 1.85:1Frame rate mode : ConstantFrame rate : 23.976 fpsColor space : YUVChroma subsampling : 4:2:0Bit depth : 8 bitsScan type : ProgressiveBits/(Pixel*Frame) : 0.316Stream size : 3.57 GiB (86%)Title : NTSC, 1280x692 (1.850:1), BDRip 720p - tRuAVC & Multfilmy [DFCbit]Writing library : x264 core 142 r2479kMod dd79a61Encoding settings : cabac=1 / ref=9 / deblock=1:-2:-1 / analyse=0x3:0x133 / me=umh / subme=11 / psy=1 / fade_compensate=0.00 / psy_rd=0.63:0.00 / mixed_ref=1 / me_range=32 / chroma_me=1 / trellis=2 / 8x8dct=1 / cqm=0 / deadzone=21,11 / fast_pskip=0 / chroma_qp_offset=-2 / threads=12 / lookahead_threads=3 / sliced_threads=0 / nr=0 / decimate=1 / interlaced=0 / bluray_compat=0 / constrained_intra=0 / fgo=0 / bframes=13 / b_pyramid=2 / b_adapt=2 / b_bias=0 / direct=1 / weightb=1 / open_gop=0 / weightp=2 / keyint=250 / keyint_min=23 / scenecut=40 / intra_refresh=0 / rc_lookahead=70 / rc=crf / mbtree=0 / crf=19.1196 / qcomp=0.81 / qpmin=0 / qpmax=69 / qpstep=4 / vbv_maxrate=50000 / vbv_bufsize=62500 / crf_max=0.0 / nal_hrd=none / filler=0 / ip_ratio=1.40 / pb_ratio=1.30 / aq=3:0.90Language : GermanDefault : YesForced : NoColor primaries : BT.709Transfer characteristics : BT.709Matrix coefficients : BT.709
Audio #1ID : 2Format : AC-3Format/Info : Audio Coding 3Mode extension : CM (complete main)Format settings, Endianness : BigCodec ID : A_AC3Duration : 1h 15mnBit rate mode : ConstantBit rate : 192 KbpsChannel(s) : 2 channelsChannel positions : Front: L RSampling rate : 48.0 KHzBit depth : 16 bitsCompression mode : LossyStream size : 104 MiB (2%)Title : AC3, 2 ch, 48 kHz, 192 kbps - DVO | Студия "Баритон"Language : RussianDefault : YesForced : No
Audio #2ID : 3Format : DTSFormat/Info : Digital Theater SystemsMode : 16Format settings, Endianness : BigCodec ID : A_DTSDuration : 1h 15mnBit rate mode : ConstantBit rate : 768 KbpsChannel(s) : 6 channelsChannel positions : Front: L C R, Side: L R, LFESampling rate : 48.0 KHzBit depth : 16 bitsCompression mode : LossyStream size : 417 MiB (10%)Title : DTS / 5.1 / 48 kHz / 768 kbps / 16-bit - DubbingLanguage : EnglishDefault : NoForced : No
TextID : 4Format : UTF-8Codec ID : S_TEXT/UTF8Codec ID/Info : UTF-8 Plain TextTitle : FullLanguage : GermanDefault : NoForced : No
Menu00:00:00.000 : en:Chapter 100:04:56.755 : en:Chapter 200:12:21.908 : en:Chapter 300:19:24.080 : en:Chapter 400:25:25.816 : en:Chapter 500:30:27.034 : en:Chapter 600:36:55.296 : en:Chapter 700:43:27.313 : en:Chapter 800:49:35.181 : en:Chapter 900:55:14.561 : en:Chapter 1001:01:30.228 : en:Chapter 1101:08:47.749 : en:Chapter 12

Скриншоты

Скриншот с названием мультфильма
--BDRip 720p


Source Blu-Ray

Релиз от групп | and | -Данный релиз не будет воспроизводиться на бытовых плеерах не поддерживающих MKV и H.264Обсуждение релизов в AVC формате || Свежие AVC рипы

_________________
Показать сообщения:    

Текущее время: Сегодня 07:13

Часовой пояс: GMT



Вы не можете начинать темы
Вы не можете отвечать на сообщения
Вы не можете редактировать свои сообщения
Вы не можете удалять свои сообщения
Вы не можете голосовать в опросах
Вы не можете прикреплять файлы к сообщениям
Вы не можете скачивать файлы