Важное объявление!
У Нас Все раздачи мультитрекерные, при нуле пиров в релизах, можете смело вставать на закачку!
 
Автор Сообщение

HUNTER

Стаж:
4 года 4 месяца
Сообщений:
56755

Репутация: 101

[+] [-]
Вне форума [Профиль] [ЛС]

| Все релизы мультфильма || BDRip-AVC, 2.91/3.18 GB |- P R E S E N T SСезон охоты / Open Season-
Страна: США
Жанр: мультфильм, комедия, приключения, семейный
Продолжительность: 01:26:15
Год выпуска: 2006
Перевод 1: Профессиональный (полное дублирование)
Перевод 2: Профессиональный (двухголосый закадровый) Петр Гланц и Инна Королёва
Субтитры: есть-Режиссёр: Роджер Аллерс, Джилл Калтон, Энтони Стаччи / Roger Allers, Jill Culton, Anthony Stacchi
Роли озвучивали: Мартин Лоуренс, Эштон Кутчер, Гэри Синиз, Дебра Мессинг, Билли Коннолли, Джорджия Энджел, Джон Фавро, Джейн Краковски, Гордон Тутусис, Патрик Варбертон, Коуди Камерон, Ника Футтерман, Дэнни Манн, Джек МакГи, Мишель Мурдокка, Фергал Рейли, Мэтью В. Тейлор, Кирк Бейли, Джек Блессинг, Ранджани Броу...
Роли дублировали: Фёдор Бондарчук, Олег Куликович, Михаил Боярский, Ксения Бржезовская, Максим Сергеев, Елена Соловьева, Алексей Гурьев, Елена Шульман, Анатолий Петров, Валерий Соловьев, Вадим Романов, Светлана Кузнецова, Сергей Дьячков, Ирина Ракшина, Иван Паршин, Юрий Лазарев, Роман Рязанцев и др.- | | -Описание: Выросший среди людей гризли оказывается в лесу в самый разгар охотничьего сезона. И пока ухаживавший за медведем егерь ищет своего воспитанника, гризли водит дружбу с лесным оленем...-Доп. информация: BDRip-AVC 624p сделан с Blu-Ray диска Open Season (2006) Blu-ray CEE 1080p AVC DD5.1 (Локализованный видеоряд).-Сэмпл/Sample (31.8 MB, 1 минута)-Качество: BDRip-AVC
Формат: MKV
Видео: 1152x624 (1.85:1), 23,976 fps, ~3478 kbps avg, 0.202 bit/pixel
Аудио #1: Русский, AC3, 6 ch, 48 kHz, 448 kbps - Дубляж | BD CEE
Аудио #2: Русский, AC3, 6 ch, 48 kHz, 448 kbps - DVO | Петр Гланц и Инна Королёва
Аудио #3: Украинский, AC3, 6 ch, 48 kHz, 448 kbps - Дубляж | BD CEE
Аудио #4: English, AC3, 6 ch, 48 kHz, 448 kbps - Original | Отдельным файлом
Субтитры: Русские (полные by Ivan, форсированные), English (Full)
Навигация по главам: есть (16 не именованных глав)
MediaInfo / x264Log
x264Log
raw [info]: 1152x624p 1:1 @ 24000/1001 fps (cfr)x264 [info]: using SAR=1/1x264 [info]: using cpu capabilities: MMX2 SSE2Fast SSSE3 SSE4.2 AVX XOP FMA4 FMA3 LZCNT BMI1x264 [info]: profile High, level 4.1x264 [info]: frame I:1036 Avg QP:12.78 size:134540 PSNR Mean Y:49.70 U:51.64 V:51.79 Avg:50.26 Global:49.57x264 [info]: frame P:32938 Avg QP:15.81 size: 33095 PSNR Mean Y:47.90 U:50.33 V:50.46 Avg:48.56 Global:47.72x264 [info]: frame B:90104 Avg QP:18.57 size: 11325 PSNR Mean Y:47.40 U:50.15 V:50.32 Avg:48.12 Global:47.02x264 [info]: consecutive B-frames: 4.4% 5.6% 9.9% 41.3% 11.0% 22.8% 1.8% 1.5% 0.2% 0.2% 0.3% 0.6% 0.1% 0.3%x264 [info]: mb I I16..4: 6.6% 65.9% 27.5%x264 [info]: mb P I16..4: 1.0% 14.9% 2.9% P16..4: 19.9% 20.0% 10.9% 2.9% 0.4% skip:27.0%x264 [info]: mb B I16..4: 0.2% 2.9% 0.4% B16..8: 21.0% 14.6% 3.5% direct: 3.4% skip:54.0% L0:39.0% L1:44.5% BI:16.5%x264 [info]: 8x8 transform intra:78.9% inter:50.9%x264 [info]: coded y,uvDC,uvAC intra: 87.7% 84.0% 65.6% inter: 16.2% 11.9% 4.1%x264 [info]: i16 v,h,dc,p: 34% 14% 6% 47%x264 [info]: i8 v,h,dc,ddl,ddr,vr,hd,vl,hu: 11% 11% 10% 8% 11% 10% 12% 11% 15%x264 [info]: i4 v,h,dc,ddl,ddr,vr,hd,vl,hu: 11% 10% 7% 8% 16% 12% 14% 9% 12%x264 [info]: i8c dc,h,v,p: 37% 29% 17% 16%x264 [info]: Weighted P-Frames: Y:4.5% UV:3.8%x264 [info]: ref P L0: 56.4% 9.5% 13.6% 6.3% 4.3% 3.3% 2.6% 1.6% 1.2% 1.0% 0.2% 0.0%x264 [info]: ref B L0: 78.9% 10.8% 4.6% 2.1% 1.4% 1.0% 0.7% 0.3% 0.2%x264 [info]: ref B L1: 93.9% 6.1%x264 [info]: SSIM Mean Y:0.9892845 (19.700db)x264 [info]: PSNR Mean Y:47.550 U:50.211 V:50.372 Avg:48.250 Global:47.215 kb/s:3478.05encoded 124078 frames, 10.34 fps, 3478.05 kb/s
GeneralUnique ID : 254952053982655737664020768714375167336 (0xBFCDFAC17BC1C08892F2CFD957C5FD68)Complete name : Open.Season.2006.Rus.Video.BDRip-AVC.624p.dfcbit.mkvFormat : MatroskaFormat version : Version 2File size : 2.91 GiBDuration : 1h 26mnOverall bit rate : 4 824 KbpsEncoded date : UTC 2014-06-11 18:03:17Writing application : mkvmerge v4.0.0 ('The Stars were mine') built on Jun 6 2010 16:18:42Writing library : libebml v1.0.0 + libmatroska v1.0.0
VideoID : 1Format : AVCFormat/Info : Advanced Video CodecFormat profile : High@L4.1Format settings, CABAC : YesFormat settings, ReFrames : 10 framesCodec ID : V_MPEG4/ISO/AVCDuration : 1h 26mnBit rate : 3 478 KbpsWidth : 1 152 pixelsHeight : 624 pixelsDisplay aspect ratio : 1.85:1Frame rate mode : ConstantFrame rate : 23.976 fpsColor space : YUVChroma subsampling : 4:2:0Bit depth : 8 bitsScan type : ProgressiveBits/(Pixel*Frame) : 0.202Stream size : 2.10 GiB (70%)Title : NTSC, 1152x624 (1.85:1), BDRip-AVC 624p - tRuAVC & Multfilmy [DFCbit]Writing library : x264 core 142 r2431kMod ac76440Encoding settings : cabac=1 / ref=10 / deblock=1:-2:-1 / analyse=0x3:0x133 / me=umh / subme=11 / psy=1 / fade_compensate=0.00 / psy_rd=0.63:0.00 / mixed_ref=1 / me_range=32 / chroma_me=1 / trellis=2 / 8x8dct=1 / cqm=0 / deadzone=21,11 / fast_pskip=0 / chroma_qp_offset=-2 / threads=12 / lookahead_threads=3 / sliced_threads=0 / nr=0 / decimate=1 / interlaced=0 / bluray_compat=0 / constrained_intra=0 / fgo=0 / bframes=13 / b_pyramid=2 / b_adapt=2 / b_bias=0 / direct=1 / weightb=1 / open_gop=0 / weightp=2 / keyint=250 / keyint_min=23 / scenecut=40 / intra_refresh=0 / rc_lookahead=70 / rc=2pass / mbtree=0 / bitrate=3478 / ratetol=1.0 / qcomp=0.81 / qpmin=0 / qpmax=69 / qpstep=4 / cplxblur=20.0 / qblur=0.5 / vbv_maxrate=50000 / vbv_bufsize=62500 / nal_hrd=none / filler=0 / ip_ratio=1.40 / pb_ratio=1.30 / aq=3:0.90Language : RussianDefault : YesForced : NoColor primaries : BT.709Transfer characteristics : BT.709Matrix coefficients : BT.709
Audio #1ID : 2Format : AC-3Format/Info : Audio Coding 3Mode extension : CM (complete main)Format settings, Endianness : BigCodec ID : A_AC3Duration : 1h 26mnBit rate mode : ConstantBit rate : 448 KbpsChannel(s) : 6 channelsChannel positions : Front: L C R, Side: L R, LFESampling rate : 48.0 KHzBit depth : 16 bitsCompression mode : LossyStream size : 276 MiB (9%)Title : AC3, 6 ch, 48 kHz, 448 kbps - Дубляж | BD CEELanguage : RussianDefault : YesForced : No
Audio #2ID : 3Format : AC-3Format/Info : Audio Coding 3Mode extension : CM (complete main)Format settings, Endianness : BigCodec ID : A_AC3Duration : 1h 26mnBit rate mode : ConstantBit rate : 448 KbpsChannel(s) : 6 channelsChannel positions : Front: L C R, Side: L R, LFESampling rate : 48.0 KHzBit depth : 16 bitsCompression mode : LossyStream size : 276 MiB (9%)Title : AC3, 6 ch, 48 kHz, 448 kbps - DVO | Петр Гланц и Инна КоролёваLanguage : RussianDefault : NoForced : No
Audio #3ID : 4Format : AC-3Format/Info : Audio Coding 3Mode extension : CM (complete main)Format settings, Endianness : BigCodec ID : A_AC3Duration : 1h 26mnBit rate mode : ConstantBit rate : 448 KbpsChannel(s) : 6 channelsChannel positions : Front: L C R, Side: L R, LFESampling rate : 48.0 KHzBit depth : 16 bitsCompression mode : LossyStream size : 276 MiB (9%)Title : AC3, 6 ch, 48 kHz, 448 kbps - Дубляж | BD CEELanguage : UkrainianDefault : NoForced : No
Text #1ID : 5Format : UTF-8Codec ID : S_TEXT/UTF8Codec ID/Info : UTF-8 Plain TextTitle : SRT, Full by IvanLanguage : RussianDefault : NoForced : No
Text #2ID : 6Format : UTF-8Codec ID : S_TEXT/UTF8Codec ID/Info : UTF-8 Plain TextTitle : SRT, ForcedLanguage : RussianDefault : NoForced : No
Text #3ID : 7Format : UTF-8Codec ID : S_TEXT/UTF8Codec ID/Info : UTF-8 Plain TextTitle : SRT, FullLanguage : EnglishDefault : NoForced : No
Menu00:00:00.000 : en:Chapter 100:05:59.985 : en:Chapter 200:09:12.969 : en:Chapter 300:16:57.016 : en:Chapter 400:21:28.704 : en:Chapter 500:23:41.837 : en:Chapter 600:28:17.779 : en:Chapter 700:33:53.615 : en:Chapter 800:38:15.752 : en:Chapter 900:45:34.023 : en:Chapter 1000:50:20.726 : en:Chapter 1100:56:51.617 : en:Chapter 1201:02:02.552 : en:Chapter 1301:07:43.601 : en:Chapter 1401:12:14.330 : en:Chapter 1501:14:59.120 : en:Chapter 16
Скриншоты
Скриншот с названием мультфильма (Локализация)
--BDRip-AVC


Source Blu-Ray

Релиз от групп | and | -Данный релиз не будет воспроизводиться на бытовых плеерах не поддерживающих MKV и H.264FAQ по просмотру AVC
  • Смогу ли я запустить AVC фильм на своём компьютере?
  • Сэмпл из раздачи не воспроизводится или отсутствует звук/изображение. Что делать?
  • Что такое H.264/AVC и зачем он нужен?
  • Что за дурацкий формат .MKV?
  • Почему MKV? Чем AVI хуже?
  • Не могу переключить/включить/выключить аудио/видео дорожки и/или субтитры. Что делать?
  • Будут ли фильмы в таком формате проигрываться на бытовых плеерах без компьютера?
  • Проигрываю фильм, а картинка очень сильно отличается от скринов. Что не так?
  • Можно ли сконвертировать AVC в DVD?
  • Почему в характеристиках видеопотока указано два разрешения и что такое анаморфное разрешение?
    Обсуждение релизов в AVC формате || Свежие AVC рипы

  • _________________
    Показать сообщения:    

    Текущее время: Сегодня 08:35

    Часовой пояс: GMT



    Вы не можете начинать темы
    Вы не можете отвечать на сообщения
    Вы не можете редактировать свои сообщения
    Вы не можете удалять свои сообщения
    Вы не можете голосовать в опросах
    Вы не можете прикреплять файлы к сообщениям
    Вы не можете скачивать файлы