Важное объявление!
У Нас Все раздачи мультитрекерные, при нуле пиров в релизах, можете смело вставать на закачку!
 
Автор Сообщение

HUNTER

Стаж:
4 года 4 месяца
Сообщений:
56719

Репутация: 101

[+] [-]
Вне форума [Профиль] [ЛС]

Север / The North / El Norte / Criterion Collection#458«The magical film that reveals the world between the dream and the reality»
Страна:США, Великобритания
Студия:American Playhouse, Channel Four Films, Independent Productions, Island Alive, Public Broadcasting Service (PBS)
Жанр:Триллер, Драма, Приключения
Год выпуска:1983
Продолжительность:02:20:46
Производитель: The Criterion Collection#458
Перевод :Субтитры interdudeCубтитры:Английские, Английские, РусскиеОригинальная аудиодорожка:Испанский
Премьера (мир):11.10.1983
Режиссер:Грегори Нава / Gregory Nava
Сценарий:Анна Томас, Грегори Нава
Продюсер:Тревор Блэк, Берта Наварро, Анна ТомасОператор:Джеймс ГленнонКомпозитор:The Folkloristas, Malecio Martinez, Линда О’БрайэнХудожник:Хилари РайтМонтаж:Betsy Blankett Milicevic
В ролях:Эрнесто Гомес Крус, Дэвид Виллальпандо, Сайде Сильвия Гутьеррес, Алисия дель Лаго, Майк Гомез, Jose Martin Ruano, Стелла Квон, Эраклио Сепеда, Emilio Gomez Ozuna, Daniel Lemus Valenzuela
Описание:Главные герои — брат и сестра из Гватемалы, Энрике и Роза. Их отца убили за организацию забастовки рабочих . Детям приходится спасаться бегством от военных, они выносят тяготы нищеты, проявлений расизма, а потом предпринимают поездку в Лос-Анджелес.

Фильм

[url=http://en.wikipedia.org/wiki/El_Norte_(film)]http://en.wikipedia.org/wiki/El_Norte_(film)[/url]

Награды и номинации


Academy Awards, USA 1985
Nominated
Oscar Best Writing, Screenplay Written Directly for the Screen
Gregory Nava
Anna Thomas
Montreal World Film Festival 1984
Won
Grand Prix des Ameriques Gregory Nava
National Film Preservation Board, USA 1995
Won
National Film Registry
Writers Guild of America, USA 1985
Nominated
WGA Award (Screen) Best Screenplay Written Directly for the Screen
Gregory Nava
Anna Thomas

Доп. информация:Софт:
PGCDemux (извлечение).
DVD-lab PRO 2, Subtitle Workshop (субтитры).
MuxMan (сборка). DvdReMakePro (финал).Исходник найден в сети .Русские субтитры interdude взяты из раздачи interdude http://rutracker.org/forum/viewtopic.php?t=4683776 .Реавторинг Нордер.Огромное Спасибо Всем, без чьей помощи этот релиз не состоялся бы!
Бонусы: (Без перевода):Диск 1,2:* New, restored high-definition digital transfer supervised and approved by director Gregory Nava
* New audio commentary featuring Nava
* In the Service of the Shadows: The Making of “El Norte”: a new video program featuring interviews with Nava, producer and co-writer Anna Thomas, actors Zaide Silvia Gutierrez and David Villalpando, and set designer David Wasco
* The Journal of Diego Rodriguez Silva, Nava’s 1972 award-winning student film
* Gallery of Chiapas location-scouting photographs
* Theatrical trailer
* New and improved English subtitle translation
* PLUS: A booklet featuring an essay by novelist Hector Tobar and Roger Ebert’s 1983 review of the film
Меню:Меню:Английский, статичное, озвученное
Сэмпл Диск 1:http://multi-up.com/966045Сэмпл Диск 2:http://multi-up.com/966046Тип релиза:2хDVD9 (Custom)
Контейнер:DVD-Video
Видео:NTSC 16:9 (720x480) VBR, Auto Letterboxed, 6367 Кбит/сек, 23,976 кадра/сек
Аудио 1:Испанский: AC3, 1 ch, 48.0 KHz, 192 Кбит/сек (Оригинал)
Аудио 2:Английский: AC3, 1 ch, 48.0 KHz, 192 Кбит/сек (Комментарий Gregory Nava)
Формат субтитров: prerendered (DVD/IDX+SUB)

Dvd Info- Диск 1

Title: Диск 1
Size: 7.25 Gb ( 7 606 220,00 KBytes ) - DVD-9
Enabled regions: 1, 2, 3, 4, 5, 6, 7, 8
VTS_01 :
Play Length: 02:20:46
Video: NTSC 16:9 (720x480) VBR, Auto Letterboxed
Audio:
Espanol, AC3, 1/0 (C) ch, 192 kbps, Delay 0 mSec
English, AC3, 1/0 (C) ch, 192 kbps, Delay 0 mSec
Subtitles:
English
English
Russian
VTS_02 :
Play Length: 00:00:06
Video: NTSC 4:3 (720x480) VBR
VTS_03 :
Play Length: 00:00:06
Video: NTSC 4:3 (720x480) VBR
VTS_04 :
Play Length: 00:01:37
Video: NTSC 4:3 (720x480) VBR
Audio:
English, AC3, 2/0 (L,R) ch, 192 kbps, Delay 0 mSec
VTS_05 :
Play Length: 00:00:20
Video: NTSC 4:3 (720x480) VBR
Audio:
Francais, AC3, 1/0 (C) ch, 192 kbps, Delay 10 mSec
VTS_06 :
Play Length: 00:00:20
Video: NTSC 4:3 (720x480) VBR
Audio:
Francais, AC3, 1/0 (C) ch, 192 kbps, Delay 10 mSec

Dvd Info- Диск 2

Title: Диск 2
Size: 5.84 Gb ( 6 119 010,00 KBytes ) - DVD-9
Enabled regions: 1, 2, 3, 4, 5, 6, 7, 8
VTS_01 :
Play Length: 00:00:06
Video: NTSC 16:9 (720x480) VBR, Auto Letterboxed
Audio:
English, AC3, 1/0 (C) ch, 192 kbps, Delay 0 mSec
Subtitles:
English
VTS_02 :
Play Length: 00:00:06
Video: NTSC 16:9 (720x480) VBR, Auto Letterboxed
Audio:
English, AC3, 1/0 (C) ch, 192 kbps, Delay 0 mSec
Subtitles:
English
VTS_03 :
Play Length: 00:00:06
Video: NTSC 16:9 (720x480) VBR, Auto Letterboxed
Audio:
English, AC3, 1/0 (C) ch, 192 kbps, Delay 0 mSec
Subtitles:
English
VTS_04 :
Play Length: 00:58:17
Video: NTSC 16:9 (720x480) VBR, Auto Letterboxed
Audio:
English, AC3, 1/0 (C) ch, 192 kbps, Delay 0 mSec
Subtitles:
English
VTS_05 :
Play Length: 00:30:05
Video: NTSC 4:3 (720x480) VBR
Audio:
English, AC3, 1/0 (C) ch, 192 kbps, Delay 0 mSec
Subtitles:
English
VTS_06 :
Play Length: 00:03:06
Video: NTSC 16:9 (720x480) VBR, Auto Letterboxed
Audio:
English, AC3, 1/0 (C) ch, 192 kbps, Delay 0 mSec

MediaInfo- Диск 1

Общее
Полное имя: F:\El Norte 2хDVD-9_Custom_Criterion_#458\Диск 1\VIDEO_TS\VTS_01_2.VOB
Формат : MPEG-PS
Размер файла : 1024 Мбайт
Продолжительность : 20 м.
Режим общего битрейта : Переменный
Общий поток : 6888 Кбит/сек
Видео
Идентификатор : 224 (0xE0)
Формат : MPEG Video
Версия формата : Version 2
Профиль формата : Main@Main
Параметр BVOP формата : Да
Параметр матрицы формата : Выборочная
Параметр GOP формата : Variable
Продолжительность : 20 м.
Вид битрейта : Переменный
Битрейт : 6367 Кбит/сек
Максимальный битрейт : 9800 Кбит/сек
Ширина : 720 пикселей
Высота : 480 пикселей
Соотношение сторон : 16:9
Частота кадров : 23,976 кадра/сек
Стандарт вещания : NTSC
Цветовое пространство : YUV
Субдискретизация насыщенности : 4:2:0
Битовая глубина : 8 бит
Тип развёртки : Прогрессивная
Порядок развёртки : 2:3 Pulldown
Метод сжатия : С потерями
Бит/(Пиксели*Кадры) : 0.768
Временной код первого кадра : 01:19:48:21
Оригинал временного кода : Group of pictures header
Размер потока : 946 Мбайт (92%)
Аудио #1
Идентификатор : 189 (0xBD)-128 (0x80)
Формат : AC-3
Формат/Информация : Audio Coding 3
Расширение режима : CM (complete main)
Параметр Endianness формата : Big
Режим смешивания : DVD-Video
Продолжительность : 20 м.
Вид битрейта : Постоянный
Битрейт : 192 Кбит/сек
Каналы : 1 канал
Расположение каналов : Front: C
Частота : 48,0 КГц
Битовая глубина : 16 бит
Метод сжатия : С потерями
Задержка видео : -602 мс.
Размер потока : 28,5 Мбайт (3%)
Аудио #2
Идентификатор : 189 (0xBD)-129 (0x81)
Формат : AC-3
Формат/Информация : Audio Coding 3
Расширение режима : CM (complete main)
Параметр Endianness формата : Big
Режим смешивания : DVD-Video
Продолжительность : 20 м.
Вид битрейта : Постоянный
Битрейт : 192 Кбит/сек
Каналы : 1 канал
Расположение каналов : Front: C
Частота : 48,0 КГц
Битовая глубина : 16 бит
Метод сжатия : С потерями
Задержка видео : -698 мс.
Размер потока : 28,5 Мбайт (3%)
Текст #1
Идентификатор : 189 (0xBD)-32 (0x20)
Формат : RLE
Формат/Информация : Run-length encoding
Режим смешивания : DVD-Video
Текст #2
Идентификатор : 189 (0xBD)-33 (0x21)
Формат : RLE
Формат/Информация : Run-length encoding
Режим смешивания : DVD-Video
Текст #3
Идентификатор : 189 (0xBD)-34 (0x22)
Формат : RLE
Формат/Информация : Run-length encoding
Режим смешивания : DVD-Video
Текст #4
Идентификатор : 189 (0xBD)-35 (0x23)
Формат : RLE
Формат/Информация : Run-length encoding
Режим смешивания : DVD-Video
Текст #5
Идентификатор : 189 (0xBD)-36 (0x24)
Формат : RLE
Формат/Информация : Run-length encoding
Режим смешивания : DVD-Video

MediaInfo- Диск 2

Общее
Полное имя : F:\CRITERION COLLECTION №458 .Север\Диск 2\VIDEO_TS\VTS_04_1.VOB
Формат : MPEG-PS
Размер файла : 1024 Мбайт
Продолжительность : 15 м.
Общий поток : 8946 Кбит/сек
Видео
Идентификатор : 224 (0xE0)
Формат : MPEG Video
Версия формата : Version 2
Профиль формата : Main@Main
Параметр BVOP формата : Да
Параметр матрицы формата : Выборочная
Параметр GOP формата : Variable
Продолжительность : 15 м.
Битрейт : 8600 Кбит/сек
Ширина : 720 пикселей
Высота : 480 пикселей
Соотношение сторон : 16:9
Частота кадров : 23,976 кадра/сек
Стандарт вещания : NTSC
Цветовое пространство : YUV
Субдискретизация насыщенности : 4:2:0
Битовая глубина : 8 бит
Тип развёртки : Прогрессивная
Порядок развёртки : 2:3 Pulldown
Метод сжатия : С потерями
Бит/(Пиксели*Кадры) : 1.038
Временной код первого кадра : 01:03:14:00
Оригинал временного кода : Group of pictures header
Размер потока : 981 Мбайт (96%)
Аудио
Идентификатор : 189 (0xBD)-128 (0x80)
Формат : AC-3
Формат/Информация : Audio Coding 3
Расширение режима : CM (complete main)
Параметр Endianness формата : Big
Режим смешивания : DVD-Video
Продолжительность : 15 м.
Вид битрейта : Постоянный
Битрейт : 192 Кбит/сек
Каналы : 1 канал
Расположение каналов : Front: C
Частота : 48,0 КГц
Битовая глубина : 16 бит
Метод сжатия : С потерями
Размер потока : 22,0 Мбайт (2%)
Текст #1
Идентификатор : 189 (0xBD)-32 (0x20)
Формат : RLE
Формат/Информация : Run-length encoding
Режим смешивания : DVD-Video
Задержка видео : 1 с. 167 мс.
Текст #2
Идентификатор : 189 (0xBD)-33 (0x21)
Формат : RLE
Формат/Информация : Run-length encoding
Режим смешивания : DVD-Video
Задержка видео : 1 с. 167 мс.

Скриншоты меню-Диск 1

Скриншоты фильма-Диск 1

Скриншоты доп. материалов-Диск 1

Скриншоты меню-Диск 2

Скриншоты доп. материалов-Диск 2

Полиграфия

Уважаемые пользователи!Найдите пару минут поблагодарить релизера и высказаться в топике раздачи.Ваше мнение - бальзам для раздающего и пища для ума остальным пользователям.Мои раздачи

_________________
Показать сообщения:    

Текущее время: Сегодня 20:24

Часовой пояс: GMT



Вы не можете начинать темы
Вы не можете отвечать на сообщения
Вы не можете редактировать свои сообщения
Вы не можете удалять свои сообщения
Вы не можете голосовать в опросах
Вы не можете прикреплять файлы к сообщениям
Вы не можете скачивать файлы