Важное объявление!
У Нас Все раздачи мультитрекерные, при нуле пиров в релизах, можете смело вставать на закачку!
 
Автор Сообщение

HUNTER

Стаж:
4 года 4 месяца
Сообщений:
56719

Репутация: 101

[+] [-]
Вне форума [Профиль] [ЛС]

Свой ребенок / Obvious Child
Страна: США
Студия: Rooks Nest Entertainment
Жанр: комедия, мелодрама
Год выпуска: 2014
Продолжительность: 01:24:23
Перевод: Профессиональный (многоголосый закадровый) Line
Cубтитры: Rus, Eng
Оригинальная аудиодорожка: английский
Режиссер: Джиллиан Робеспьер / Gillian Robespierre
В ролях: Дженни Слейт, Джейк Лэси, Габи Хоффманн, Гейб Лидман, Дэвид Кросс, Ричард Кайнд, Полли Дрэйпер, Пол Бриганти, Синди Чунг, Стивен Сингер
Описание: Жизнь Донны складывается не очень удачно. Мечта о большой сцене и главных ролях в кино разбилась о реалии – она обычная актриса, которых тысячи, и ей надо считать удачей, если относительно часто удается получать роли (в основном "подменные") в маленьких театрах или на небольших корпоративах. И в тот момент, когда, кажется, все начало налаживаться (она получила постоянную работу в театре), судьба подготовила ряд испытаний: сначала ее бойфренд уходит от Донны к более молодой и чуть более успешной актрисе. Нервные переживания из-за бойфренда выбили девушку на некоторое время из равновесия, что отразилось на работе – её увольняют. Ну, и в довершении ко всему, она узнает, что случайный секс с симпатичным незнакомцем не остался без последствий – Донна беременна... Молодой девушке предстоит сделать очень непростой для нее выбор – прервать беременность или стать матерью...

Тип релиза: BDRip 720p
Контейнер: MKV
Видео: MPEG-4 AVC, 6200 Кбит/с, 1280x544, 23,976 fps
Аудио: Rus, AC3, 384 kb/s (2 ch), 48 kHz
Аудио 2: Eng, AC3, 640 kb/s (6 ch), 48 kHz
Формат субтитров: softsub (SRT)

MediaInfo

Format : Matroska
Format version : Version 4 / Version 2
File size : 4.26 GiB
Duration : 1h 24mn
Overall bit rate : 7 225 Kbps
Movie name : Свой ребёнок. (Tonik)
Encoded date : UTC 2015-07-17 16:06:00
Writing application : mkvmerge v7.1.0 ('Good Love') 64bit built on Jul 27 2014 13:06:55
Writing library : libebml v1.3.0 + libmatroska v1.4.1
_STATISTICS_WRITING_APP : mkvmerge v7.1.0 ('Good Love') 64bit built on Jul 27 2014 13:06:55
_STATISTICS_WRITING_DATE_UTC : 2015-07-17 16:06:00
_STATISTICS_TAGS : BPS DURATION NUMBER_OF_FRAMES NUMBER_OF_BYTES
DURATION : 01:19:29.885000000
NUMBER_OF_FRAMES : 1204
NUMBER_OF_BYTES : 77029
Video
ID : 1
Format : AVC
Format/Info : Advanced Video Codec
Format profile : High@L4.1
Format settings, CABAC : Yes
Format settings, ReFrames : 12 frames
Codec ID : V_MPEG4/ISO/AVC
Duration : 1h 24mn
Bit rate : 6 200 Kbps
Width : 1 280 pixels
Height : 544 pixels
Display aspect ratio : 2.35:1
Frame rate mode : Constant
Frame rate : 23.976 fps
Color space : YUV
Chroma subsampling : 4:2:0
Bit depth : 8 bits
Scan type : Progressive
Bits/(Pixel*Frame) : 0.371
Stream size : 3.57 GiB (84%)
Writing library : x264 core 142 r2479kMod dd79a61
Encoding settings : cabac=1 / ref=12 / deblock=1:-3:-3 / analyse=0x3:0x133 / me=umh / subme=10 / psy=1 / fade_compensate=0.00 / psy_rd=1.08:0.00 / mixed_ref=1 / me_range=24 / chroma_me=1 / trellis=2 / 8x8dct=1 / cqm=0 / deadzone=21,11 / fast_pskip=1 / chroma_qp_offset=-2 / threads=6 / lookahead_threads=1 / sliced_threads=0 / nr=0 / decimate=1 / interlaced=0 / bluray_compat=0 / constrained_intra=0 / fgo=0 / bframes=11 / b_pyramid=2 / b_adapt=2 / b_bias=0 / direct=3 / weightb=1 / open_gop=0 / weightp=2 / keyint=250 / keyint_min=23 / scenecut=40 / intra_refresh=0 / rc=2pass / mbtree=0 / bitrate=6200 / ratetol=1.0 / qcomp=0.65 / qpmin=0 / qpmax=69 / qpstep=4 / cplxblur=20.0 / qblur=0.5 / ip_ratio=1.30 / pb_ratio=1.20 / aq=1:0.68
Language : English
Default : Yes
Forced : No
Matrix coefficients : BT.709
_STATISTICS_WRITING_APP : mkvmerge v7.1.0 ('Good Love') 64bit built on Jul 27 2014 13:06:55
_STATISTICS_WRITING_DATE_UTC : 2015-07-17 16:06:00
_STATISTICS_TAGS : BPS DURATION NUMBER_OF_FRAMES NUMBER_OF_BYTES
DURATION : 01:24:22.891000000
NUMBER_OF_FRAMES : 121388
NUMBER_OF_BYTES : 3922466279
Audio #1
ID : 2
Format : AC-3
Format/Info : Audio Coding 3
Mode extension : CM (complete main)
Format settings, Endianness : Big
Codec ID : A_AC3
Duration : 1h 24mn
Bit rate mode : Constant
Bit rate : 384 Kbps
Channel(s) : 2 channels
Channel positions : Front: L R
Sampling rate : 48.0 KHz
Bit depth : 16 bits
Compression mode : Lossy
Stream size : 232 MiB (5%)
Title : line
Language : Russian
Default : Yes
Forced : No
Audio #2
ID : 3
Format : AC-3
Format/Info : Audio Coding 3
Mode extension : CM (complete main)
Format settings, Endianness : Big
Codec ID : A_AC3
Duration : 1h 24mn
Bit rate mode : Constant
Bit rate : 640 Kbps
Channel(s) : 6 channels
Channel positions : Front: L C R, Side: L R, LFE
Sampling rate : 48.0 KHz
Bit depth : 16 bits
Compression mode : Lossy
Stream size : 386 MiB (9%)
Language : English
Default : No
Forced : No
Text #1
ID : 4
Format : UTF-8
Codec ID : S_TEXT/UTF8
Codec ID/Info : UTF-8 Plain Text
Language : Russian
Default : No
Forced : No
Text #2
ID : 5
Format : UTF-8
Codec ID : S_TEXT/UTF8
Codec ID/Info : UTF-8 Plain Text
Language : English
Default : No
Forced : No
Text #3
ID : 6
Format : UTF-8
Codec ID : S_TEXT/UTF8
Codec ID/Info : UTF-8 Plain Text
Title : SDH removed
Language : English
Default : No
Forced : No
Menu
00:00:00.000 : en:00:00:00.000
00:05:25.200 : en:00:05:25.200
00:13:22.593 : en:00:13:22.593
00:20:36.152 : en:00:20:36.152
00:26:29.922 : en:00:26:29.922
00:31:38.313 : en:00:31:38.313
00:38:55.291 : en:00:38:55.291
00:44:17.905 : en:00:44:17.905
00:47:16.625 : en:00:47:16.625
00:51:14.571 : en:00:51:14.571
00:54:18.338 : en:00:54:18.338
00:57:19.144 : en:00:57:19.144
01:02:47.097 : en:01:02:47.097
01:05:10.907 : en:01:05:10.907
01:10:31.686 : en:01:10:31.686
01:16:41.639 : en:01:16:41.639

Скриншоты


_________________
Показать сообщения:    

Текущее время: Сегодня 19:51

Часовой пояс: GMT



Вы не можете начинать темы
Вы не можете отвечать на сообщения
Вы не можете редактировать свои сообщения
Вы не можете удалять свои сообщения
Вы не можете голосовать в опросах
Вы не можете прикреплять файлы к сообщениям
Вы не можете скачивать файлы