Важное объявление!
У Нас Все раздачи мультитрекерные, при нуле пиров в релизах, можете смело вставать на закачку!
 
Автор Сообщение

HUNTER

Стаж:
4 года 4 месяца
Сообщений:
56749

Репутация: 101

[+] [-]
Вне форума [Профиль] [ЛС]

Свой в доску / Soul Man
Страна: США
Студия: Balcor Film Investors, Steve Tisch Company
Жанр: мелодрама, комедия
Год выпуска: 1986
Продолжительность: 01:45:12
Перевод 1: Профессиональный (двухголосый закадровый)
Перевод 2: Авторский (одноголосый закадровый) Сергей Визгунов
Cубтитры: нет
Оригинальная аудиодорожка: английский
Режиссер: Стив Майнер / Steve Miner
В ролях: Си Томас Хауэлл (Mark Watson), Рей Дон Чонг (Sarah Walker), Ари Гросс (Gordon Bloomfeld), Джеймс Эрл Джонс (Professor Banks), Мелора Хардин (Whitney Dunbar), Лесли Нильсен (Mr. Dunbar), Энн Уолкер (Mrs. Dunbar), Джеймс Сиккинг (Bill Watson), Макс Райт (Dr. Aronson), Джефф Олтмэн (Ray McGrady)
Описание: Узнав о зачислении на юридический факультет Гарварда, Марк вне себя от радости. Но его отец отказывается платить за учебу. А единственная стипендия предназначена для чернокожего студента. Делать нечего, и приняв специальные препараты, Марк превращается в негра. В университете Марк влюбляется в красивую темнокожую студентку и крутит роман с Уитни, дочкой домовладельца-расиста, у которого снимает жилье. Но тут к Марку неожиданно приезжают родители, накрыв «на месте преступления» и Уитни, и Сару, и его самого в виде негра! Как выпутаться из этой ситуации, чтобы остаться в университете и не потерять Сару? Тем более, что доставшаяся Марку стипендия предназначалась для нее.
II Сэмпл II IMDB II
Доп. информация:
За перевод Сергея Визгунова спасибо JUSTKANT
За многоголоску и оригинальную шестиканалку спасибо SJC
Тип релиза: WEB-DL 1080p
Контейнер: MKV
Видео: AVC / 1920x1080 / 16:9 / 23.976fps / Bit rate 5260Kbps
Аудио 1: AC3 / 48.0 KHz / 6ch. / 448kbps / rus / MVO
Аудио 2: AC3 / 48.0 KHz / 2ch. / 192kbps / rus / Сергей Визгунов
Аудио 3: AC3 / 48.0 KHz / 6ch. / 448kbps / eng / DVD
Аудио 4: AAC-LC / 48.0 KHz / 2ch. / 221kbps / eng / WEB-DL

MediaInfo

Общее
Уникальный идентификатор : 251169379660622499860663858510048251901 (0xBCF576833EFDB094A820CA7D845BCFFD)
Полное имя : G:\!!!_torrent\Soul.Man.1986.WEB-DL.1080p_by_vedigo.mkv
Формат : Matroska
Версия формата : Version 4 / Version 2
Размер файла : 4,83 Гбайт
Продолжительность : 1 ч. 45 м.
Общий поток : 6572 Кбит/сек
Название фильма : Soul.Man.1986.WEB-DL.1080p_by_vedigo
Дата кодирования : UTC 2015-12-24 08:10:25
Программа кодирования : mkvmerge v8.6.1 ('Flying') 64bit
Библиотека кодирования : libebml v1.3.3 + libmatroska v1.4.4
Видео
Идентификатор : 1
Формат : AVC
Формат/Информация : Advanced Video Codec
Профиль формата : High@L4
Параметр CABAC формата : Да
Параметр ReFrames формата : 4 кадра
Идентификатор кодека : V_MPEG4/ISO/AVC
Продолжительность : 1 ч. 45 м.
Битрейт : 5260 Кбит/сек
Ширина : 1920 пикселей
Высота : 1080 пикселей
Соотношение сторон : 16:9
Режим частоты кадров : Постоянный
Частота кадров : 23,976 (23976/1000) кадра/сек
Цветовое пространство : YUV
Субдискретизация насыщенности : 4:2:0
Битовая глубина : 8 бит
Тип развёртки : Прогрессивная
Бит/(Пиксели*Кадры) : 0.106
Размер потока : 3,87 Гбайт (80%)
Заголовок : Soul.Man.1986.WEB-DL.1080p_by_vedigo
Default : Да
Forced : Нет
Цветовой диапазон : Limited
Основные цвета : BT.709
Характеристики трансфера : BT.709
Коэффициенты матрицы : BT.709
Аудио #1
Идентификатор : 2
Формат : AC-3
Формат/Информация : Audio Coding 3
Расширение режима : CM (complete main)
Параметр Endianness формата : Big
Идентификатор кодека : A_AC3
Продолжительность : 1 ч. 45 м.
Вид битрейта : Постоянный
Битрейт : 448 Кбит/сек
Каналы : 6 каналов
Расположение каналов : Front: L C R, Side: L R, LFE
Частота : 48,0 КГц
Частота кадров : 31,250 кадров/сек (1536 spf)
Метод сжатия : С потерями
Размер потока : 337 Мбайт (7%)
Заголовок : MVO
Язык : Russian
Default : Да
Forced : Нет
Аудио #2
Идентификатор : 3
Формат : AC-3
Формат/Информация : Audio Coding 3
Расширение режима : CM (complete main)
Параметр Endianness формата : Big
Идентификатор кодека : A_AC3
Продолжительность : 1 ч. 45 м.
Вид битрейта : Постоянный
Битрейт : 192 Кбит/сек
Каналы : 2 канала
Расположение каналов : Front: L R
Частота : 48,0 КГц
Частота кадров : 31,250 кадров/сек (1536 spf)
Метод сжатия : С потерями
Размер потока : 144 Мбайт (3%)
Заголовок : AVO @ Сергей Визгунов
Язык : Russian
Default : Нет
Forced : Нет
Аудио #3
Идентификатор : 4
Формат : AC-3
Формат/Информация : Audio Coding 3
Расширение режима : CM (complete main)
Параметр Endianness формата : Big
Идентификатор кодека : A_AC3
Продолжительность : 1 ч. 45 м.
Вид битрейта : Постоянный
Битрейт : 448 Кбит/сек
Каналы : 6 каналов
Расположение каналов : Front: L C R, Side: L R, LFE
Частота : 48,0 КГц
Частота кадров : 31,250 кадров/сек (1536 spf)
Метод сжатия : С потерями
Размер потока : 337 Мбайт (7%)
Заголовок : eng @ DVD
Язык : English
Default : Нет
Forced : Нет
Аудио #4
Идентификатор : 5
Формат : AAC
Формат/Информация : Advanced Audio Codec
Профиль формата : LC
Идентификатор кодека : A_AAC
Продолжительность : 1 ч. 45 м.
Битрейт : 221 Кбит/сек
Каналы : 2 канала
Расположение каналов : Front: L R
Частота : 48,0 КГц
Частота кадров : 46,875 кадров/сек (1024 spf)
Метод сжатия : С потерями
Размер потока : 167 Мбайт (3%)
Заголовок : eng @ WEB-DL
Язык : English
Default : Нет
Forced : Нет
Меню
00:00:00.000 : en:Chapter 1
00:05:41.000 : en:Chapter 2
00:15:30.000 : en:Chapter 3
00:23:13.000 : en:Chapter 4
00:34:18.000 : en:Chapter 5
00:42:29.000 : en:Chapter 6
00:52:07.000 : en:Chapter 7
01:01:15.000 : en:Chapter 8
01:10:08.000 : en:Chapter 9
01:18:58.000 : en:Chapter 10
01:25:57.000 : en:Chapter 11
01:40:58.000 : en:Chapter 12

Скриншоты



_________________
Показать сообщения:    

Текущее время: Сегодня 05:22

Часовой пояс: GMT



Вы не можете начинать темы
Вы не можете отвечать на сообщения
Вы не можете редактировать свои сообщения
Вы не можете удалять свои сообщения
Вы не можете голосовать в опросах
Вы не можете прикреплять файлы к сообщениям
Вы не можете скачивать файлы