Важное объявление!
У Нас Все раздачи мультитрекерные, при нуле пиров в релизах, можете смело вставать на закачку!
 
Автор Сообщение

HUNTER

Стаж:
4 года 4 месяца
Сообщений:
56829

Репутация: 101

[+] [-]
Вне форума [Профиль] [ЛС]

Сверкающие седла / Пылающие седла / Blazing Saddles40th Anniversary Edition
Страна: США
Жанр: комедия, вестерн
Год выпуска: 1974
Продолжительность: 01:32:54
Перевод 1: Авторский (одноголосый закадровый) Михалёв
Перевод 2: Авторский (одноголосый закадровый) Горчаков
Перевод 3: Одноголосый закадровый "Петербуржец"
Перевод 4: Авторский (одноголосый закадровый) Володарский
Перевод 5: Профессиональный (двухголосый закадровый)
Cубтитры: русские, английские [Full, SDH/COLOR]
Оригинальная аудиодорожка: английский
-
Режиссер: Мэл Брукс / Mel Brooks
В ролях: Кливон Литтл, Джин Уайлдер, Слим Пикенс, Харви Кормен, Мэдлин Кан, Мэл Брукс, Бертон Гиллиам, Алекс Кэррас, Дэвид Хаддлстон, Лиам Данн
-
Описание: Железная дорога должна пройти через городок Рок Ридж. Но как выгнать местных жителей из города, если хочешь украсть у них землю? Заслать самую отчаянную банду головорезов… и назначить нового чернокожего шерифа, который протянет не больше суток.

Тип релиза: BDRemux 1080p
Контейнер: MKV
Видео: MPEG-4 AVC / NTSC 16:9 / 1920x1080 (2,40:1) / 24986 kbps / 23,976 fps / High@L4.1
Аудио 1: Russian / AC3 / 48 kHz / 2 Ch / 224 kbps / 16 bit / Михалёв
Аудио 2: Russian / AC3 / 48 kHz / 2 Ch / 224 kbps / 16 bit / Горчаков
Аудио 3: Russian / AC3 / 48 kHz / 2 Ch / 192 kbps / 16 bit / "Петербуржец"
Аудио 4: Russian / AC3 / 48 kHz / 1 Ch / 192 kbps / 16 bit / Володарский
Аудио 5: Russian / AC3 / 48 kHz / 1 Ch / 192 kbps / 16 bit / DVO
Аудио 6: English / DTS-HD Master Audio / 5.1 Ch / 48 kHz / 2439 kbps / 24-bit (DTS Core: 5.1 Ch / 48 kHz / 1510 kbps / 24-bit) / Original
Аудио 7: English / AC3 / 48 kHz / 1 Ch / 192 kbps / 16 bit / Commentary
Формат субтитров: softsub (SRT)
Навигация по главам: есть

Особая благодарность за VHS-дорожку №4 от xfiles!!!
СэмплMediaInfo
Общее
Уникальный идентификатор : 227374689003442514208639217638834231774 (0xAB0EC5AFDD99BE9DB81F00903960D9DE)
Полное имя : F:\Blazing Saddles.1974.BDRemux.1080p.mkv
Формат : Matroska
Версия формата : Version 4 / Version 2
Размер файла : 18,6 Гбайт
Продолжительность : 1 ч. 32 м.
Режим общего битрейта : Переменный
Общий поток : 28,6 Мбит/сек
Дата кодирования : UTC 2014-06-28 15:58:30
Программа кодирования : mkvmerge v7.0.0 ('Where We Going') 64bit built on Jun 9 2014 15:16:27
Библиотека кодирования : libebml v1.3.0 + libmatroska v1.4.1
_STATISTICS_WRITING_APP : mkvmerge v7.0.0 ('Where We Going') 64bit built on Jun 9 2014 15:16:27
_STATISTICS_WRITING_DATE_UTC : 2014-06-28 15:58:30
_STATISTICS_TAGS : BPS DURATION NUMBER_OF_FRAMES NUMBER_OF_BYTES
DURATION : 01:30:33.804000000
NUMBER_OF_FRAMES : 1261
NUMBER_OF_BYTES : 46814
Видео
Идентификатор : 1
Формат : AVC
Формат/Информация : Advanced Video Codec
Профиль формата : High@L4.1
Параметр CABAC формата : Да
Параметр ReFrames формата : 2 кадра
Идентификатор кодека : V_MPEG4/ISO/AVC
Продолжительность : 1 ч. 32 м.
Вид битрейта : Переменный
Ширина : 1920 пикселей
Высота : 1080 пикселей
Соотношение сторон : 16:9
Режим частоты кадров : Постоянный
Частота кадров : 23,976 кадра/сек
Цветовое пространство : YUV
Субдискретизация насыщенности : 4:2:0
Битовая глубина : 8 бит
Тип развёртки : Прогрессивная
Язык : English
Default : Да
Forced : Нет
Аудио #1
Идентификатор : 2
Формат : AC-3
Формат/Информация : Audio Coding 3
Расширение режима : CM (complete main)
Параметр Endianness формата : Big
Идентификатор кодека : A_AC3
Продолжительность : 1 ч. 32 м.
Вид битрейта : Постоянный
Битрейт : 224 Кбит/сек
Каналы : 2 канала
Расположение каналов : Front: L R
Частота : 48,0 КГц
Битовая глубина : 16 бит
Метод сжатия : С потерями
Размер потока : 149 Мбайт (1%)
Заголовок : AVO / Алексей Михалёв
Язык : Russian
Default : Да
Forced : Нет
Аудио #2
Идентификатор : 3
Формат : AC-3
Формат/Информация : Audio Coding 3
Расширение режима : CM (complete main)
Параметр Endianness формата : Big
Идентификатор кодека : A_AC3
Продолжительность : 1 ч. 32 м.
Вид битрейта : Постоянный
Битрейт : 224 Кбит/сек
Каналы : 2 канала
Расположение каналов : Front: L R
Частота : 48,0 КГц
Битовая глубина : 16 бит
Метод сжатия : С потерями
Размер потока : 149 Мбайт (1%)
Заголовок : AVO / Василий Горчаков
Язык : Russian
Default : Нет
Forced : Нет
Аудио #3
Идентификатор : 4
Формат : AC-3
Формат/Информация : Audio Coding 3
Расширение режима : CM (complete main)
Параметр Endianness формата : Big
Идентификатор кодека : A_AC3
Продолжительность : 1 ч. 32 м.
Вид битрейта : Постоянный
Битрейт : 192 Кбит/сек
Каналы : 2 канала
Расположение каналов : Front: L R
Частота : 48,0 КГц
Битовая глубина : 16 бит
Метод сжатия : С потерями
Размер потока : 128 Мбайт (1%)
Заголовок : AVO / "Петербуржец"
Язык : Russian
Default : Нет
Forced : Нет
Аудио #4
Идентификатор : 5
Формат : AC-3
Формат/Информация : Audio Coding 3
Расширение режима : CM (complete main)
Параметр Endianness формата : Big
Идентификатор кодека : A_AC3
Продолжительность : 1 ч. 32 м.
Вид битрейта : Постоянный
Битрейт : 192 Кбит/сек
Каналы : 1 канал
Расположение каналов : Front: C
Частота : 48,0 КГц
Битовая глубина : 16 бит
Метод сжатия : С потерями
Размер потока : 128 Мбайт (1%)
Заголовок : AVO / Леонид Володарский
Язык : Russian
Default : Нет
Forced : Нет
Аудио #5
Идентификатор : 6
Формат : AC-3
Формат/Информация : Audio Coding 3
Расширение режима : CM (complete main)
Параметр Endianness формата : Big
Идентификатор кодека : A_AC3
Продолжительность : 1 ч. 32 м.
Вид битрейта : Постоянный
Битрейт : 192 Кбит/сек
Каналы : 1 канал
Расположение каналов : Front: C
Частота : 48,0 КГц
Битовая глубина : 16 бит
Метод сжатия : С потерями
Размер потока : 128 Мбайт (1%)
Заголовок : DVO
Язык : Russian
Default : Нет
Forced : Нет
Аудио #6
Идентификатор : 7
Формат : DTS
Формат/Информация : Digital Theater Systems
Профиль формата : MA / Core
Режим : 16
Параметр Endianness формата : Big
Идентификатор кодека : A_DTS
Продолжительность : 1 ч. 32 м.
Вид битрейта : Переменный
Битрейт : Неизвестно / 1509 Кбит/сек
Каналы : 6 каналов
Расположение каналов : Front: L C R, Side: L R, LFE
Частота : 48,0 КГц
Битовая глубина : 24 бит
Метод сжатия : Без потерь / Lossy
Заголовок : Original
Язык : English
Default : Нет
Forced : Нет
Аудио #7
Идентификатор : 8
Формат : AC-3
Формат/Информация : Audio Coding 3
Расширение режима : CM (complete main)
Параметр Endianness формата : Big
Идентификатор кодека : A_AC3
Продолжительность : 1 ч. 32 м.
Вид битрейта : Постоянный
Битрейт : 192 Кбит/сек
Каналы : 1 канал
Расположение каналов : Front: C
Частота : 48,0 КГц
Битовая глубина : 16 бит
Метод сжатия : С потерями
Размер потока : 128 Мбайт (1%)
Заголовок : ENG / Commentary
Язык : English
Default : Нет
Forced : Нет
Текст #1
Идентификатор : 9
Формат : UTF-8
Идентификатор кодека : S_TEXT/UTF8
Идентификатор кодека/Информация : UTF-8 Plain Text
Заголовок : RUS
Язык : Russian
Default : Нет
Forced : Нет
Текст #2
Идентификатор : 10
Формат : UTF-8
Идентификатор кодека : S_TEXT/UTF8
Идентификатор кодека/Информация : UTF-8 Plain Text
Заголовок : Original
Язык : English
Default : Нет
Forced : Нет
Текст #3
Идентификатор : 11
Формат : UTF-8
Идентификатор кодека : S_TEXT/UTF8
Идентификатор кодека/Информация : UTF-8 Plain Text
Заголовок : Original / SDH/COLOR
Язык : English
Default : Нет
Forced : Нет
Меню
00:00:00.000 : en:
00:02:17.762 : en:
00:05:59.442 : en:
00:08:49.779 : en:
00:13:08.788 : en:
00:18:23.602 : en:
00:21:45.053 : en:
00:25:14.513 : en:
00:30:21.027 : en:
00:31:59.959 : en:
00:40:51.490 : en:
00:43:02.580 : en:
00:48:25.903 : en:
00:50:02.708 : en:
00:52:45.871 : en:
00:58:20.872 : en:
01:01:23.971 : en:
01:07:11.318 : en:
01:11:53.309 : en:
01:13:28.987 : en:
01:17:22.346 : en:
01:19:28.889 : en:
01:20:38.708 : en:
01:23:26.626 : en:
01:27:41.589 : en:
01:32:16.531 : en:
Скриншоты

_________________
Показать сообщения:    

Текущее время: Сегодня 09:05

Часовой пояс: GMT



Вы не можете начинать темы
Вы не можете отвечать на сообщения
Вы не можете редактировать свои сообщения
Вы не можете удалять свои сообщения
Вы не можете голосовать в опросах
Вы не можете прикреплять файлы к сообщениям
Вы не можете скачивать файлы