Важное объявление!
У Нас Все раздачи мультитрекерные, при нуле пиров в релизах, можете смело вставать на закачку!
 
Автор Сообщение

HUNTER

Стаж:
4 года 4 месяца
Сообщений:
56848

Репутация: 101

[+] [-]
Вне форума [Профиль] [ЛС]

Свенгали / Svengali
Страна: Великобритания
Жанр: комедия, музыка
Год выпуска: 2013
Продолжительность: 01:32:11
Перевод: Субтитры
Cубтитры: английские, русские (Ars Anderson)
Оригинальная аудиодорожка: английский
Режиссер: Джон Хардвик / John Hardwick
В ролях: Мартин Фриман, Мэтт Берри, Майкл Соча, Максин Пик, Вики МакКлюр, Наташа О’Кифф, Джоэль Фрай, Майкл Смайли, Джессика Эллерби, Морвенна Бэнкс
Описание:
Фильм рассказывает историю парня из маленького городка. Его зовут Дикси и у него есть большая мечта. Он покидает скромный валлийский шахтерский город ради ярких огней Лондона, намереваясь стать менеджером лучшей группы в мире.
- || || Внимание: присутствует ненормативная лексика11-Тип релиза: BDRip 720p (рип от BodoiCuHo@TayTO)

Контейнер: MKV
Видео: AVC (x264), 1280x690 (1.85:1) at 23,976 fps, 7600 Кbps
Аудио 1: AC3; 640 Kbps; CBR; 6 ch; 48 khz | Английский |
Формат субтитров: softsub (SRT)

Скриншоты || x264 Info || MediaInfo || Notes

MediaInfo
Код:
General
Unique ID                                : 205829059724821429750608835504438202527 (0x9AD93C2601478217964962190EC7509F)
Complete name                            : Свенгали.2013.RUSSUB.720p.BluRay.x264-TayTO.mkv
Format                                   : Matroska
Format version                           : Version 4 / Version 2
File size                                : 5.31 GiB
Duration                                 : 1h 32mn
Overall bit rate                         : 8 240 Kbps
Movie name                               : Svengali [2013] [720p] RUSSUB
Encoded date                             : UTC 2015-09-21 15:32:30
Writing application                      : mkvmerge v7.8.0 ('River Man') 32bit built on Mar 27 2015 16:18:02
Writing library                          : libebml v1.3.1 + libmatroska v1.4.2
Video
ID                                       : 1
Format                                   : AVC
Format/Info                              : Advanced Video Codec
Format profile                           : High@L4.1
Format settings, CABAC                   : Yes
Format settings, ReFrames                : 9 frames
Codec ID                                 : V_MPEG4/ISO/AVC
Duration                                 : 1h 32mn
Bit rate                                 : 7 600 Kbps
Width                                    : 1 280 pixels
Height                                   : 690 pixels
Display aspect ratio                     : 1.85:1
Frame rate mode                          : Constant
Frame rate                               : 23.976 fps
Color space                              : YUV
Chroma subsampling                       : 4:2:0
Bit depth                                : 8 bits
Scan type                                : Progressive
Bits/(Pixel*Frame)                       : 0.359
Stream size                              : 4.79 GiB (90%)
Title                                    : profile.php?mode=viewprofile&u=22488948
Writing library                          : x264 core 142 r2409kMod d6b4e63
Encoding settings                        : cabac=1 / ref=9 / deblock=1:-3:-3 / analyse=0x3:0x133 / me=tesa / subme=11 / psy=1 / fade_compensate=0.00 / psy_rd=1.00:0.00 / mixed_ref=1 / me_range=24 / chroma_me=1 / trellis=2 / 8x8dct=1 / cqm=0 / deadzone=21,11 / fast_pskip=0 / chroma_qp_offset=-2 / threads=12 / lookahead_threads=2 / sliced_threads=0 / nr=0 / decimate=1 / interlaced=0 / bluray_compat=0 / constrained_intra=0 / fgo=0 / bframes=9 / b_pyramid=2 / b_adapt=2 / b_bias=0 / direct=3 / weightb=1 / open_gop=0 / weightp=2 / keyint=250 / keyint_min=23 / scenecut=40 / intra_refresh=0 / rc=2pass / mbtree=0 / bitrate=7600 / ratetol=1.0 / qcomp=0.60 / qpmin=0 / qpmax=69 / qpstep=4 / cplxblur=20.0 / qblur=0.5 / ip_ratio=1.30 / pb_ratio=1.20 / aq=1:0.90
Language                                 : English
Default                                  : Yes
Forced                                   : No
Matrix coefficients                      : BT.709
Color range                              : Limited
Audio
ID                                       : 2
Format                                   : AC-3
Format/Info                              : Audio Coding 3
Mode extension                           : CM (complete main)
Format settings, Endianness              : Big
Codec ID                                 : A_AC3
Duration                                 : 1h 32mn
Bit rate mode                            : Constant
Bit rate                                 : 640 Kbps
Channel(s)                               : 6 channels
Channel positions                        : Front: L C R, Side: L R, LFE
Sampling rate                            : 48.0 KHz
Bit depth                                : 16 bits
Compression mode                         : Lossy
Stream size                              : 422 MiB (8%)
Language                                 : English
Default                                  : Yes
Forced                                   : No
Text #1
ID                                       : 3
Format                                   : UTF-8
Codec ID                                 : S_TEXT/UTF8
Codec ID/Info                            : UTF-8 Plain Text
Title                                    : [Ars Anderson]
Language                                 : Russian
Default                                  : Yes
Forced                                   : No
Text #2
ID                                       : 4
Format                                   : UTF-8
Codec ID                                 : S_TEXT/UTF8
Codec ID/Info                            : UTF-8 Plain Text
Language                                 : English
Default                                  : No
Forced                                   : No
Menu
00:00:00.000                             : en:00:00:00.000
00:08:08.113                             : en:00:08:08.113
00:16:21.939                             : en:00:16:21.939
00:25:06.630                             : en:00:25:06.630
00:30:10.434                             : en:00:30:10.434
00:38:16.753                             : en:00:38:16.753
00:44:54.025                             : en:00:44:54.025
00:51:16.323                             : en:00:51:16.323
00:58:02.145                             : en:00:58:02.145
01:08:43.619                             : en:01:08:43.619
01:18:22.531                             : en:01:18:22.531
01:26:05.702                             : en:01:26:05.702

x264 Info

x264 [info]: frame I:1265 Avg QP:13.62 size:177254
x264 [info]: frame P:30609 Avg QP:15.40 size: 67329
x264 [info]: frame B:100749 Avg QP:15.85 size: 29460
x264 [info]: consecutive B-frames: 3.5% 3.0% 9.6% 18.6% 20.9% 35.0% 4.5% 1.4% 1.2% 2.3%
Цитата: Русские субтитры взяты с соседнего трекера, в них исправлены ошибки
-
BodoiCuHo писал(а):
Цитата:

Fixed color levels and dirty lines.

_________________
Показать сообщения:    

Текущее время: Сегодня 04:18

Часовой пояс: GMT



Вы не можете начинать темы
Вы не можете отвечать на сообщения
Вы не можете редактировать свои сообщения
Вы не можете удалять свои сообщения
Вы не можете голосовать в опросах
Вы не можете прикреплять файлы к сообщениям
Вы не можете скачивать файлы
Наши партнеры: интернет магазин Ивановского трикотажа textilla.ru