Важное объявление!
У Нас Все раздачи мультитрекерные, при нуле пиров в релизах, можете смело вставать на закачку!
 
Автор Сообщение

HUNTER

Стаж:
4 года 4 месяца
Сообщений:
56809

Репутация: 101

[+] [-]
Вне форума [Профиль] [ЛС]

«Вместо свидания получили наказание»-Свадебный угар / Mike and Dave Need Wedding Dates
-Год выпуска: 2016
Страна: США
Студия: Twentieth Century Fox Film Corporation
Жанр: мелодрама, комедия, приключения
Продолжительность: 01:38:32
Перевод: Профессиональный (дублированный) Blu-ray EUR / Двадцатый Век Фокс СНГ
Cубтитры: русские, английские
Оригинальная аудиодорожка: английский-Режиссер: Джейк Зиманский / Jake Szymanski-В ролях: Зак Эфрон, Адам Дивайн, Анна Кендрик, Обри Плаза, Стивен Рут, Стефани Фэраси, Стефани Бирд, Сэм Ричардсон, Элис Веттерлунд, Лавелл Кроуфорд и другие.-Роли дублировали: Даниил Эльдаров, Данил Щебланов, Мария Иващенко, Евгения Ваган, Александр Новиков, Елена Войновская, Лина Иванова, Илья Хвостиков, Татьяна Шитова, Алена Фалалеева, Иван Калинин, Андрей Казанцев, Константин Карасик, Александра Курагина, Анна Киселева, Варвара Чабан, Владимир Никитин, Григорий Маликов, Дарья Новосельцева, Дина Бобылёва, Карина Фадеева, Кирилл Туранский, Михаил Данилюк, Олег Новиков и другие.-Описание: Братья-тусовщики Майк и Дэйв дают в интернете объявление о поиске пар, чтобы отправиться на свадьбу сестры на Гавайях. Они надеются на дикий отрыв, но выбранный ими дуэт девушек оказывается совершенно неконтролируемым, готовым превратить праздник в настоящий ад.-РЕЛИЗ ОТ: -Качество: BDRip 720p |DON|
Формат: MKV
Видео кодек: H.264
Аудио кодек: AC3, DTS
Видео: H.264, 1280x536 (2.40:1), 23.976 fps, ~6000 kbps, 0.365 bit/pixel
Аудио:
  • русская |Blu-ray EUR|: DTS, 48 kHz, 6 ch, 768 kbps
  • украинская |iTunes|: AC3, 48 kHz, 2 ch, 192 kbps
  • английская |Оригинал|: DTS, 48 kHz, 6 ch, 1509 kbps
    английская |Комментарий Джейка Зиманского|: AC3, 48 kHz, 2 ch, 224 kbps
-Сэмпл \ Кинопоиск-

Скриншоты

Media Info

Код:
General
Unique ID                      : 200355300376659254197401214003808016589 (0x96BB06F9EF72DBBAB96A9BA0A59798CD)
Complete name                  : E:\Video\HD\Movies (HD)\Mike and Dave Need Wedding Dates (2016) (BDRip 720p).mkv
Format                         : Matroska
Format version                 : Version 4 / Version 2
File size                      : 5.99 GiB
Duration                       : 1h 38mn
Overall bit rate               : 8 678 Kbps
Encoded date                   : UTC 2016-09-30 13:34:14
Writing application            : mkvmerge v8.8.0 ('Wind at my back') 32bit
Writing library                : libebml v1.3.3 + libmatroska v1.4.4
DURATION                       : 01:36:01.178000000
NUMBER_OF_FRAMES               : 9
NUMBER_OF_BYTES                : 512
_STATISTICS_WRITING_APP        : mkvmerge v8.8.0 ('Wind at my back') 32bit
_STATISTICS_WRITING_DATE_UTC   : 2016-09-30 13:34:14
_STATISTICS_TAGS               : BPS DURATION NUMBER_OF_FRAMES NUMBER_OF_BYTES
Video
ID                             : 1
Format                         : AVC
Format/Info                    : Advanced Video Codec
Format profile                 : High@L4.1
Format settings, CABAC         : Yes
Format settings, ReFrames      : 12 frames
Codec ID                       : V_MPEG4/ISO/AVC
Duration                       : 1h 38mn
Bit rate                       : 6 000 Kbps
Width                          : 1 280 pixels
Height                         : 536 pixels
Display aspect ratio           : 2.40:1
Frame rate mode                : Constant
Frame rate                     : 23.976 fps
Color space                    : YUV
Chroma subsampling             : 4:2:0
Bit depth                      : 8 bits
Scan type                      : Progressive
Bits/(Pixel*Frame)             : 0.365
Stream size                    : 4.01 GiB (67%)
Writing library                : x264 core 148 r2705 3f5ed56
Encoding settings              : cabac=1 / ref=12 / deblock=1:-3:-3 / analyse=0x3:0x133 / me=umh / subme=11 / psy=1 / psy_rd=1.00:0.00 / mixed_ref=1 / me_range=32 / chroma_me=1 / trellis=2 / 8x8dct=1 / cqm=0 / deadzone=21,11 / fast_pskip=0 / chroma_qp_offset=-2 / threads=17 / lookahead_threads=2 / sliced_threads=0 / slices=4 / nr=0 / decimate=0 / interlaced=0 / bluray_compat=0 / constrained_intra=0 / bframes=8 / b_pyramid=2 / b_adapt=2 / b_bias=0 / direct=3 / weightb=1 / open_gop=0 / weightp=2 / keyint=250 / keyint_min=23 / scenecut=40 / intra_refresh=0 / rc_lookahead=40 / rc=2pass / mbtree=0 / bitrate=6000 / ratetol=1.0 / qcomp=0.65 / qpmin=0 / qpmax=51 / qpstep=4 / cplxblur=20.0 / qblur=0.5 / vbv_maxrate=62500 / vbv_bufsize=78125 / nal_hrd=none / filler=0 / ip_ratio=1.35 / pb_ratio=1.25 / aq=3:0.75 / zones=46,556,b=1.4
Language                       : English
Default                        : Yes
Forced                         : No
DURATION                       : 01:38:32.615000000
NUMBER_OF_FRAMES               : 141761
NUMBER_OF_BYTES                : 4434409038
_STATISTICS_WRITING_APP        : mkvmerge v8.8.0 ('Wind at my back') 32bit
_STATISTICS_WRITING_DATE_UTC   : 2016-09-30 13:34:14
_STATISTICS_TAGS               : BPS DURATION NUMBER_OF_FRAMES NUMBER_OF_BYTES
Audio #1
ID                             : 2
Format                         : DTS
Format/Info                    : Digital Theater Systems
Mode                           : 16
Format settings, Endianness    : Big
Codec ID                       : A_DTS
Duration                       : 1h 38mn
Bit rate mode                  : Constant
Bit rate                       : 768 Kbps
Channel(s)                     : 6 channels
Channel positions              : Front: L C R, Side: L R, LFE
Sampling rate                  : 48.0 KHz
Bit depth                      : 24 bits
Compression mode               : Lossy
Stream size                    : 543 MiB (9%)
Title                          : DUB (Blu-ray EUR / Двадцатый Век Фокс СНГ)
Language                       : Russian
Default                        : Yes
Forced                         : No
Audio #2
ID                             : 3
Format                         : AC-3
Format/Info                    : Audio Coding 3
Mode extension                 : CM (complete main)
Format settings, Endianness    : Big
Codec ID                       : A_AC3
Duration                       : 1h 38mn
Bit rate mode                  : Constant
Bit rate                       : 192 Kbps
Channel(s)                     : 2 channels
Channel positions              : Front: L R
Sampling rate                  : 48.0 KHz
Bit depth                      : 16 bits
Compression mode               : Lossy
Stream size                    : 136 MiB (2%)
Title                          : DUB (iTunes / Postmodern)
Language                       : Ukrainian
Default                        : No
Forced                         : No
Audio #3
ID                             : 4
Format                         : DTS
Format/Info                    : Digital Theater Systems
Mode                           : 16
Format settings, Endianness    : Big
Codec ID                       : A_DTS
Duration                       : 1h 38mn
Bit rate mode                  : Constant
Bit rate                       : 1 509 Kbps
Channel(s)                     : 6 channels
Channel positions              : Front: L C R, Side: L R, LFE
Sampling rate                  : 48.0 KHz
Bit depth                      : 24 bits
Compression mode               : Lossy
Stream size                    : 1.04 GiB (17%)
Title                          : Original
Language                       : English
Default                        : No
Forced                         : No
Audio #4
ID                             : 5
Format                         : AC-3
Format/Info                    : Audio Coding 3
Mode extension                 : CM (complete main)
Format settings, Endianness    : Big
Codec ID                       : A_AC3
Duration                       : 1h 38mn
Bit rate mode                  : Constant
Bit rate                       : 224 Kbps
Channel(s)                     : 2 channels
Channel positions              : Front: L R
Sampling rate                  : 48.0 KHz
Bit depth                      : 16 bits
Compression mode               : Lossy
Stream size                    : 158 MiB (3%)
Title                          : Commentary with Director Jake Szymanski
Language                       : English
Default                        : No
Forced                         : No
Text #1
ID                             : 6
Format                         : UTF-8
Codec ID                       : S_TEXT/UTF8
Codec ID/Info                  : UTF-8 Plain Text
Title                          : Forced (Blu-ray EUR)
Language                       : Russian
Default                        : Yes
Forced                         : No
Text #2
ID                             : 7
Format                         : UTF-8
Codec ID                       : S_TEXT/UTF8
Codec ID/Info                  : UTF-8 Plain Text
Title                          : Full (Blu-ray EUR)
Language                       : Russian
Default                        : No
Forced                         : No
Text #3
ID                             : 8
Format                         : UTF-8
Codec ID                       : S_TEXT/UTF8
Codec ID/Info                  : UTF-8 Plain Text
Title                          : Forced
Language                       : English
Default                        : No
Forced                         : No
Text #4
ID                             : 9
Format                         : UTF-8
Codec ID                       : S_TEXT/UTF8
Codec ID/Info                  : UTF-8 Plain Text
Title                          : Full
Language                       : English
Default                        : No
Forced                         : No
Text #5
ID                             : 10
Format                         : UTF-8
Codec ID                       : S_TEXT/UTF8
Codec ID/Info                  : UTF-8 Plain Text
Title                          : Full (SDH)
Language                       : English
Default                        : No
Forced                         : No
Text #6
ID                             : 11
Format                         : UTF-8
Codec ID                       : S_TEXT/UTF8
Codec ID/Info                  : UTF-8 Plain Text
Title                          : Commentary with Director Jake Szymanski
Language                       : English
Default                        : No
Forced                         : No
Menu
00:00:00.000                   : en:1
00:03:39.511                   : en:2
00:08:12.826                   : en:3
00:11:26.102                   : en:4
00:17:29.340                   : en:5
00:22:33.477                   : en:6
00:27:22.432                   : en:7
00:31:29.179                   : en:8
00:35:23.204                   : en:9
00:38:17.212                   : en:10
00:41:26.442                   : en:11
00:44:25.538                   : en:12
00:50:22.811                   : en:13
00:54:12.833                   : en:14
00:56:53.660                   : en:15
01:01:16.131                   : en:16
01:04:44.214                   : en:17
01:08:24.058                   : en:18
01:12:28.886                   : en:19
01:16:33.339                   : en:20
01:21:08.614                   : en:21
01:25:30.542                   : en:22
01:28:45.987                   : en:23
01:33:51.084                   : en:24
-

_________________
Показать сообщения:    

Текущее время: Сегодня 19:44

Часовой пояс: GMT



Вы не можете начинать темы
Вы не можете отвечать на сообщения
Вы не можете редактировать свои сообщения
Вы не можете удалять свои сообщения
Вы не можете голосовать в опросах
Вы не можете прикреплять файлы к сообщениям
Вы не можете скачивать файлы