Важное объявление!
У Нас Все раздачи мультитрекерные, при нуле пиров в релизах, можете смело вставать на закачку!
 
Автор Сообщение

HUNTER

Стаж:
4 года 4 месяца
Сообщений:
56790

Репутация: 101

[+] [-]
Вне форума [Профиль] [ЛС]

Свадебный угар / Mike and Dave Need Wedding Dates
Страна: США
Студия: США, 20th Century Fox Film Corporation
Жанр: Комедия, мелодрама, приключения
Год выпуска: 2016
Продолжительность: 01:38:49
Перевод: Профессиональный (дублированный) iTunes Russia
Cубтитры: английские
Оригинальная аудиодорожка: английский
Режиссер: Джейк Зиманский / Jake Szymanski
В ролях: Зак Эфрон, Адам Дивайн, Анна Кендрик, Обри Плаза, Стивен Рут, Стефани Фэраси, Стефани Бирд, Сэм Ричардсон, Элис Веттерлунд, Лавелл Кроуфорд
Описание: Братья-тусовщики Майк и Дэйв дают в интернете объявление о поиске пар, чтобы отправиться на свадьбу сестры на Гавайях. Они надеются на дикий отрыв, но выбранный ими дуэт девушек оказывается совершенно неконтролируемым, готовым превратить праздник в настоящий ад.
Сэмпл: MediaFire
Тип релиза: WEB-DL 1080p
Контейнер: MKV
Видео: MPEG-4 AVC, 4547 Кбит/с, 1914x800
Аудио: Русский 48.0 KHz, AC3, 6 ch, 384 kbps iTunes Russia
Аудио 2: English 48.0 KHz, AC3, 6 ch, 384 kbps Original

MediaInfo

Общее
Уникальный идентификатор : 209914260740472955721276149060433628633 (0x9DEC041BF1C863628EE4F317E3B84DD9)
Полное имя : F:\Torrent Downloads\Mike.and.Dave.Need.Wedding.Dates.2016.1080p.WEB-DL.mkv
Формат : Matroska
Версия формата : Version 2
Размер файла : 3,67 Гбайт
Продолжительность : 1 ч. 38 м.
Общий поток : 5315 Кбит/сек
Название фильма : Mike.and.Dave.Need.Wedding.Dates.2016
Дата кодирования : UTC 2016-09-15 19:22:36
Программа кодирования : mkvmerge v7.9.0 ('Birds') 64bit
Библиотека кодирования : libebml v1.3.1 + libmatroska v1.4.2
DURATION : 01:38:32.608000000
NUMBER_OF_FRAMES : 184769
NUMBER_OF_BYTES : 283805184
_STATISTICS_WRITING_APP : mkvmerge v7.9.0 ('Birds') 64bit
_STATISTICS_WRITING_DATE_UTC : 2016-09-15 19:22:36
_STATISTICS_TAGS : BPS DURATION NUMBER_OF_FRAMES NUMBER_OF_BYTES
Видео
Идентификатор : 1
Формат : AVC
Формат/Информация : Advanced Video Codec
Профиль формата : High@L4.0
Параметр CABAC формата : Да
Параметр ReFrames формата : 5 кадров
Идентификатор кодека : V_MPEG4/ISO/AVC
Продолжительность : 1 ч. 38 м.
Битрейт : 4442 Кбит/сек
Ширина : 1914 пикселей
Высота : 800 пикселей
Соотношение сторон : 2,40:1
Соотношение сторон в оригинале : 2,40:1
Режим частоты кадров : Постоянный
Частота кадров : 23,976 кадра/сек
Цветовое пространство : YUV
Субдискретизация насыщенности : 4:2:0
Битовая глубина : 8 бит
Тип развёртки : Прогрессивная
Бит/(Пиксели*Кадры) : 0.121
Размер потока : 3,07 Гбайт (84%)
Заголовок : Mike.and.Dave.Need.Wedding.Dates.2016
Язык : English
Default : Да
Forced : Нет
Основные цвета : BT.709
Характеристики трансфера : BT.709
Коэффициенты матрицы : BT.709
Аудио #1
Идентификатор : 2
Формат : AC-3
Формат/Информация : Audio Coding 3
Расширение режима : CM (complete main)
Параметр Endianness формата : Big
Идентификатор кодека : A_AC3
Продолжительность : 1 ч. 38 м.
Вид битрейта : Постоянный
Битрейт : 384 Кбит/сек
Каналы : 6 каналов
Расположение каналов : Front: L C R, Side: L R, LFE
Частота : 48,0 КГц
Битовая глубина : 16 бит
Метод сжатия : С потерями
Размер потока : 271 Мбайт (7%)
Язык : Russian
Default : Да
Forced : Нет
Аудио #2
Идентификатор : 3
Формат : AC-3
Формат/Информация : Audio Coding 3
Расширение режима : CM (complete main)
Параметр Endianness формата : Big
Идентификатор кодека : A_AC3
Продолжительность : 1 ч. 38 м.
Вид битрейта : Постоянный
Битрейт : 384 Кбит/сек
Каналы : 6 каналов
Расположение каналов : Front: L C R, Side: L R, LFE
Частота : 48,0 КГц
Битовая глубина : 16 бит
Метод сжатия : С потерями
Размер потока : 271 Мбайт (7%)
Язык : English
Default : Нет
Forced : Нет
Текст
Идентификатор : 4
Формат : UTF-8
Идентификатор кодека : S_TEXT/UTF8
Идентификатор кодека/Информация : UTF-8 Plain Text
Язык : English
Default : Да
Forced : Нет
Меню
00:00:00.000 : en:1
00:03:38.510 : en:2
00:08:11.824 : en:3
00:11:25.100 : en:4
00:17:28.338 : en:5
00:22:32.475 : en:6
00:27:21.430 : en:7
00:31:28.176 : en:8
00:35:22.201 : en:9
00:38:16.208 : en:10
00:41:25.438 : en:11
00:44:24.533 : en:12
00:50:21.806 : en:13
00:54:11.827 : en:14
00:56:52.654 : en:15
01:01:15.124 : en:16
01:04:43.207 : en:17
01:08:23.051 : en:18
01:12:27.879 : en:19
01:16:32.331 : en:20
01:21:07.606 : en:21
01:25:29.534 : en:22
01:28:44.979 : en:23
01:33:50.075 : en:24

Скриншоты


_________________
Показать сообщения:    

Текущее время: Сегодня 19:50

Часовой пояс: GMT



Вы не можете начинать темы
Вы не можете отвечать на сообщения
Вы не можете редактировать свои сообщения
Вы не можете удалять свои сообщения
Вы не можете голосовать в опросах
Вы не можете прикреплять файлы к сообщениям
Вы не можете скачивать файлы