Важное объявление!
У Нас Все раздачи мультитрекерные, при нуле пиров в релизах, можете смело вставать на закачку!
 
Автор Сообщение

дежурный_по_апрелю

Стаж:
4 года 2 месяца
Сообщений:
45

Репутация: 11

[+] [-]
Вне форума [Профиль] [ЛС]

Свадебная ваза / Vase de noces / The Pig Fucking Movie-
Страна: Бельгия
Жанр: ужасы, мелодрама
Год выпуска: 1975
Продолжительность: 01:18:56
Перевод: Не требуется
Cубтитры: нет-Режиссер: Тьери Жено / Thierry Z�no-В ролях: Доминик Гарни / Dominique Garny-Описание: Сумасшедший фермер бегает по ферме голый и насилует свинью. Иногда он часами смотрит, как совокупляются куры, катает по ферме колесо и просто радуется жизни. Когда свинья родила от фермера поросят, он начинает ревновать их отцовской ревностью к матери и в конце концов вешает всех. После этого показывает мертвых поросят свинье и убивает ее, а потом закапывает себя в землю вместе с возлюбленной...-Доп. информация:

22 февраля 2012 года страницу фильма посетили около 150,000 человек после публикации ссылки на неё в сети ВКонтакте. В итоге фильм занял 1-е место в Топе самых популярных фильмов на КиноПоиске и продержался там в течение трех дней.-Качество видео: DVDRip
Формат видео: AVI
Видео: 512x384 (4:3), 25 fps, XviD, 2369 kbps avg, 0.482 bit/pixel
Аудио: 48 kHz, AC3 Dolby Digital, 2/0 (L,R) ch, ~192.00 kbps avg

MediaInfo

Формат : AVI
Формат/Информация : Audio Video Interleave
Размер файла : 1,42 Гбайт
Продолжительность : 1 ч. 18 м.
Общий поток : 2568 Кбит/сек
Программа кодирования : VirtualDubMod 1.5.4.1 (build 2178/release)
Библиотека кодирования : VirtualDubMod build 2178/release
Видео
Идентификатор : 0
Формат : MPEG-4 Visual
Профиль формата : Advanced Simple@L5
Параметр BVOP формата : 1
Параметр QPel формата : Нет
Параметр GMC формата : Без точки перехода
Параметр матрицы формата : Default (H.263)
Режим смешивания : Сжатый битовый поток
Идентификатор кодека : XVID
Идентификатор кодека/Подсказка : XviD
Продолжительность : 1 ч. 18 м.
Битрейт : 2369 Кбит/сек
Ширина : 512 пикселей
Высота : 384 пикселя
Соотношение сторон : 4:3
Частота кадров : 25,000 кадров/сек
Цветовое пространство : YUV
Субдискретизация насыщенности : 4:2:0
Битовая глубина : 8 бит
Тип развёртки : Прогрессивная
Метод сжатия : С потерями
Бит/(Пиксели*Кадры) : 0.482
Размер потока : 1,31 Гбайт (92%)
Библиотека кодирования : XviD 1.2.0.dev47 (UTC 2006-11-01)
Аудио
Идентификатор : 1
Формат : AC-3
Формат/Информация : Audio Coding 3
Расширение режима : CM (complete main)
Идентификатор кодека : 2000
Продолжительность : 1 ч. 18 м.
Вид битрейта : Постоянный
Битрейт : 192 Кбит/сек
Каналы : 2 канала
Расположение каналов : Front: L R
Частота : 48,0 КГц
Битовая глубина : 16 бит
Метод сжатия : С потерями
Размер потока : 108 Мбайт (7%)
Выравнивание : Разделение по промежуткам
Продолжительность промежутка : 80 мс. (2,00 видеокадра)
Время предзагрузки промежутка : 500 мс.
Язык : French

Скриншот c названием фильма

Скриншоты


_________________

Что наша жизнь - игра, Соло... И не прожить ее, не сыграть без обмана и фальши. Но ИГРАТЬ нужно... bu
Показать сообщения:    

Текущее время: Сегодня 00:30

Часовой пояс: GMT



Вы не можете начинать темы
Вы не можете отвечать на сообщения
Вы не можете редактировать свои сообщения
Вы не можете удалять свои сообщения
Вы не можете голосовать в опросах
Вы не можете прикреплять файлы к сообщениям
Вы не можете скачивать файлы