Важное объявление!
У Нас Все раздачи мультитрекерные, при нуле пиров в релизах, можете смело вставать на закачку!
 
Автор Сообщение

HUNTER

Стаж:
4 года 4 месяца
Сообщений:
56848

Репутация: 101

[+] [-]
Вне форума [Профиль] [ЛС]

Мой парень – псих / Silver Linings Playbook

-
-Страна: США
Студия: The Weinstein Company LLC
Жанр: драма, мелодрама, комедия
Год выпуска: 2012
Продолжительность: 02:02:07--Перевод 1: Профессиональный (многоголосый, закадровый) Blu-ray
Перевод 2: Одноголосый закадровый Алексей "Doctor_Joker" Матвеев
Перевод 3: Одноголосый закадровый zamez
Cубтитры: русские (voronine; Notabenoid; Doctor_Joker ), украинские, английские (Full, SDH, SDH-COLORED)
Оригинальная аудиодорожка: английский--Режиссер: Дэвид О. Расселл / David O. Russell
В ролях: Брэдли Купер, Дженнифер Лоуренс, Роберт Де Ниро, Джеки Уивер, Крис Такер, Анупам Кхер, Джон Ортиз, Ши Уигхэм, Джулия Стайлз, Пол Херман--Описание: Бывший школьный учитель Пэт, проведя в психиатрической больнице восемь месяцев, возвращается в родительский дом. Он одержим мыслью помириться с бывшей супругой, к которой не имеет права приближаться по решению суда. Но знакомство с эксцентричной девушкой Тиффани зажигает в Пэте луч надежды…--imdb | kinopoisk | Сэмпл--Тип релиза: BDRip 720p [Silver Linings Playbook 2012 PROPER 720p BluRay DD5.1 x264-EbP]
Контейнер: MKV
Видео: MPEG-4 AVC / 10,1 Mbps / 1280x534 / 23,976 fps / 2,40:1 / High Profile 4.1
Аудио 1: Russian AC3 / 5.1 / 48 kHz / 640 kbps / 16 bits |Blu-ray|
Аудио 2: Russian AC3 / 5.1 / 48 kHz / 640 kbps / 16 bits |Doctor_Joker|
Аудио 3: Russian AC3 / 2.0 / 48 kHz / 192 kbps / 16 bits |zamez|
Аудио 4: Ukrainian AC3 / 5.1 / 48 kHz / 640 kbps / 16 bits |MVO, Студия «Омикрон»|
Аудио 5: English AC3 / 5.1 / 48 kHz / 640 kbps / 16 bits |original|
Формат субтитров: softsub [SRT]

MediaInfo

Код:
Общее
Уникальный идентификатор                 : 246267655795869684101828618440097004522 (0xB9456CDE0B69A954AF01A0945B45FBEA)
Полное имя                               : G:\HD\Мой парень – псих.2012.BDRip.(720p).mkv
Формат                                   : Matroska
Версия формата                           : Version 2
Размер файла                             : 11,2 Гбайт
Продолжительность                        : 2 ч. 2 м.
Общий поток                              : 13,1 Мбит/сек
Дата кодирования                         : UTC 2014-01-11 14:10:33
Программа кодирования                    : mkvmerge v5.8.0 ('No Sleep / Pillow') built on Sep  2 2012 15:37:04
Библиотека кодирования                   : libebml v1.2.3 + libmatroska v1.3.0
Attachment                               : Yes
Видео
Идентификатор                            : 1
Формат                                   : AVC
Формат/Информация                        : Advanced Video Codec
Профиль формата                          : High@L4.1
Параметр CABAC формата                   : Да
Параметр ReFrames формата                : 12 кадров
Идентификатор кодека                     : V_MPEG4/ISO/AVC
Продолжительность                        : 2 ч. 2 м.
Битрейт                                  : 10,1 Мбит/сек
Ширина                                   : 1280 пикселей
Высота                                   : 534 пикселя
Соотношение сторон                       : 2,40:1
Режим частоты кадров                     : Постоянный
Частота кадров                           : 23,976 кадра/сек
Цветовое пространство                    : YUV
Субдискретизация насыщенности            : 4:2:0
Битовая глубина                          : 8 бит
Тип развёртки                            : Прогрессивная
Бит/(Пиксели*Кадры)                      : 0.617
Размер потока                            : 8,62 Гбайт (77%)
Заголовок                                : Silver Linings Playbook 2012 PROPER 720p BluRay DD5.1 x264-EbP
Библиотека кодирования                   : x264 core 129 r2245 bc13772
Настройки программы                      : cabac=1 / ref=12 / deblock=1:-3:-3 / analyse=0x3:0x133 / me=tesa / subme=11 / psy=1 / psy_rd=1.05:0.00 / mixed_ref=1 / me_range=24 / chroma_me=1 / trellis=2 / 8x8dct=1 / cqm=0 / deadzone=21,11 / fast_pskip=0 / chroma_qp_offset=-2 / threads=12 / lookahead_threads=2 / sliced_threads=0 / nr=0 / decimate=0 / interlaced=0 / bluray_compat=0 / constrained_intra=0 / bframes=9 / b_pyramid=2 / b_adapt=2 / b_bias=0 / direct=3 / weightb=1 / open_gop=0 / weightp=2 / keyint=250 / keyint_min=23 / scenecut=40 / intra_refresh=0 / rc=crf / mbtree=0 / crf=15.3 / qcomp=0.75 / qpmin=0 / qpmax=69 / qpstep=4 / ip_ratio=1.30 / pb_ratio=1.30 / aq=1:0.80
Default                                  : Да
Forced                                   : Нет
Аудио #1
Идентификатор                            : 2
Формат                                   : AC-3
Формат/Информация                        : Audio Coding 3
Расширение режима                        : CM (complete main)
Параметр Endianness формата              : Big
Идентификатор кодека                     : A_AC3
Продолжительность                        : 2 ч. 2 м.
Вид битрейта                             : Постоянный
Битрейт                                  : 640 Кбит/сек
Каналы                                   : 6 каналов
Расположение каналов                     : Front: L C R, Side: L R, LFE
Частота                                  : 48,0 КГц
Битовая глубина                          : 16 бит
Метод сжатия                             : С потерями
Размер потока                            : 559 Мбайт (5%)
Заголовок                                : Dub, Blu-ray
Язык                                     : Russian
Default                                  : Да
Forced                                   : Нет
Аудио #2
Идентификатор                            : 3
Формат                                   : AC-3
Формат/Информация                        : Audio Coding 3
Расширение режима                        : CM (complete main)
Параметр Endianness формата              : Big
Идентификатор кодека                     : A_AC3
Продолжительность                        : 2 ч. 2 м.
Вид битрейта                             : Постоянный
Битрейт                                  : 640 Кбит/сек
Каналы                                   : 6 каналов
Расположение каналов                     : Front: L C R, Side: L R, LFE
Частота                                  : 48,0 КГц
Битовая глубина                          : 16 бит
Метод сжатия                             : С потерями
Размер потока                            : 559 Мбайт (5%)
Заголовок                                : Doctor_Joker
Язык                                     : Russian
Default                                  : Нет
Forced                                   : Нет
Аудио #3
Идентификатор                            : 4
Формат                                   : AC-3
Формат/Информация                        : Audio Coding 3
Расширение режима                        : CM (complete main)
Параметр Endianness формата              : Big
Идентификатор кодека                     : A_AC3
Продолжительность                        : 2 ч. 2 м.
Вид битрейта                             : Постоянный
Битрейт                                  : 192 Кбит/сек
Каналы                                   : 2 канала
Расположение каналов                     : Front: L R
Частота                                  : 48,0 КГц
Битовая глубина                          : 16 бит
Метод сжатия                             : С потерями
Размер потока                            : 168 Мбайт (1%)
Заголовок                                : zamez
Язык                                     : Russian
Default                                  : Нет
Forced                                   : Нет
Аудио #4
Идентификатор                            : 5
Формат                                   : AC-3
Формат/Информация                        : Audio Coding 3
Расширение режима                        : CM (complete main)
Параметр Endianness формата              : Big
Идентификатор кодека                     : A_AC3
Продолжительность                        : 2 ч. 2 м.
Вид битрейта                             : Постоянный
Битрейт                                  : 640 Кбит/сек
Каналы                                   : 6 каналов
Расположение каналов                     : Front: L C R, Side: L R, LFE
Частота                                  : 48,0 КГц
Битовая глубина                          : 16 бит
Метод сжатия                             : С потерями
Размер потока                            : 559 Мбайт (5%)
Язык                                     : Ukrainian
Default                                  : Нет
Forced                                   : Нет
Аудио #5
Идентификатор                            : 6
Формат                                   : AC-3
Формат/Информация                        : Audio Coding 3
Расширение режима                        : CM (complete main)
Параметр Endianness формата              : Big
Идентификатор кодека                     : A_AC3
Продолжительность                        : 2 ч. 2 м.
Вид битрейта                             : Постоянный
Битрейт                                  : 640 Кбит/сек
Каналы                                   : 6 каналов
Расположение каналов                     : Front: L C R, Side: L R, LFE
Частота                                  : 48,0 КГц
Битовая глубина                          : 16 бит
Метод сжатия                             : С потерями
Размер потока                            : 559 Мбайт (5%)
Язык                                     : English
Default                                  : Нет
Forced                                   : Нет
Текст #1
Идентификатор                            : 7
Формат                                   : UTF-8
Идентификатор кодека                     : S_TEXT/UTF8
Идентификатор кодека/Информация          : UTF-8 Plain Text
Заголовок                                : voronine
Язык                                     : Russian
Default                                  : Нет
Forced                                   : Нет
Текст #2
Идентификатор                            : 8
Формат                                   : UTF-8
Идентификатор кодека                     : S_TEXT/UTF8
Идентификатор кодека/Информация          : UTF-8 Plain Text
Заголовок                                : Doctor_Joker & MartinaG
Язык                                     : Russian
Default                                  : Нет
Forced                                   : Нет
Текст #3
Идентификатор                            : 9
Формат                                   : UTF-8
Идентификатор кодека                     : S_TEXT/UTF8
Идентификатор кодека/Информация          : UTF-8 Plain Text
Заголовок                                : Notabenoid
Язык                                     : Russian
Default                                  : Нет
Forced                                   : Нет
Текст #4
Идентификатор                            : 10
Формат                                   : UTF-8
Идентификатор кодека                     : S_TEXT/UTF8
Идентификатор кодека/Информация          : UTF-8 Plain Text
Язык                                     : Ukrainian
Default                                  : Нет
Forced                                   : Нет
Текст #5
Идентификатор                            : 11
Формат                                   : UTF-8
Идентификатор кодека                     : S_TEXT/UTF8
Идентификатор кодека/Информация          : UTF-8 Plain Text
Заголовок                                : full
Язык                                     : English
Default                                  : Нет
Forced                                   : Нет
Текст #6
Идентификатор                            : 12
Формат                                   : UTF-8
Идентификатор кодека                     : S_TEXT/UTF8
Идентификатор кодека/Информация          : UTF-8 Plain Text
Заголовок                                : SDH
Язык                                     : English
Default                                  : Нет
Forced                                   : Нет
Текст #7
Идентификатор                            : 13
Формат                                   : UTF-8
Идентификатор кодека                     : S_TEXT/UTF8
Идентификатор кодека/Информация          : UTF-8 Plain Text
Заголовок                                : SDH-COLORED
Язык                                     : English
Default                                  : Нет
Forced                                   : Нет
Меню
00:00:00.000                             : :Chapter 01
00:04:44.158                             : :Chapter 02
00:10:17.533                             : :Chapter 03
00:15:08.032                             : :Chapter 04
00:22:31.391                             : :Chapter 05
00:29:24.846                             : :Chapter 06
00:35:19.867                             : :Chapter 07
00:41:21.479                             : :Chapter 08
00:52:21.012                             : :Chapter 09
00:58:44.687                             : :Chapter 10
01:03:46.280                             : :Chapter 11
01:09:50.978                             : :Chapter 12
01:15:35.489                             : :Chapter 13
01:21:49.404                             : :Chapter 14
01:26:34.480                             : :Chapter 15
01:33:51.584                             : :Chapter 16
01:38:30.154                             : :Chapter 17
01:45:26.695                             : :Chapter 18
01:51:17.504                             : :Chapter 19
01:56:07.794                             : :Chapter 20

Скриншоты


Дополнительно

Цитата:

Дороги и субтитры взяты с этой раздачи thx: Arifis

Silver Linings Playbook 2012 PROPER 720p BluRay DD5.1 x264-EbP

Код:
Technical information
RELEASE NAME.: Silver Linings Playbook 2012 PROPER 720p BluRay DD5.1 x264-EbP
RELEASE DATE.: 22/Apr/2013
RELEASE SIZE.: 9.40 GB
RUNTIME......: 2:02:06
VIDEO CODEC..: x264, CRF, L4.1
FRAMERATE....: 23.976 fps
BITRATE......: 10.2 Mbps
RESOLUTION...: 1280x534
AUDIO .......: English Dolby Digital Audio 5.1 @ 640 Kbps
SUBTITLES....: English
CHAPTER......: Yes
SOURCE.......: Silver Linings Playbook 2012 1080p Blu-ray AVC DTS-HD MA 5.1-TRUEDEF (Thanks)
Encoder.......: DarkSonSami (EbP)
Notes:
Reason for propering: New better source + better frames than just the fixed one.
Special thanks to all EbP members, 9mm, rose, xc3ll, Nick007, Sabooo and all those who helped.
x264 log
x264 [info]: profile High, level 4.1
x264 [info]: frame I:1323  Avg QP:13.59  size:126686
x264 [info]: frame P:35917 Avg QP:14.40  size: 85699
x264 [info]: frame B:138431 Avg QP:16.28  size: 45123
x264 [info]: consecutive B-frames:  1.7%  2.6%  7.6% 14.6% 15.1% 38.5%  9.3%  5.4%  3.3%  1.9%
encoded 175671 frames, 2.19 fps, 10364.07 kb/s
Source | Encode




_________________
Показать сообщения:    

Текущее время: Сегодня 22:29

Часовой пояс: GMT



Вы не можете начинать темы
Вы не можете отвечать на сообщения
Вы не можете редактировать свои сообщения
Вы не можете удалять свои сообщения
Вы не можете голосовать в опросах
Вы не можете прикреплять файлы к сообщениям
Вы не можете скачивать файлы
Наши партнеры: интернет магазин Ивановского трикотажа textilla.ru