Важное объявление!
У Нас Все раздачи мультитрекерные, при нуле пиров в релизах, можете смело вставать на закачку!
 
Автор Сообщение

HUNTER

Стаж:
4 года 4 месяца
Сообщений:
56719

Репутация: 101

[+] [-]
Вне форума [Профиль] [ЛС]

Сбежавшая работа / Outsourced
Страна: США
Студия: ShadowCatcher Entertainment
Жанр: Комедия, Мелодрама
Год выпуска: 2006
Продолжительность: 01:42:21
Перевод: Профессиональный (многоголосый закадровый)
Cубтитры: русские, английские
Оригинальная аудиодорожка: английский
Режиссер: Джон Джефкоат / John Jeffcoat
В ролях: Джош Хэмилтон, Айеша Дхаркер, Асиф Басра, Судха Шивпури, Ларри Пайн, Саурабх Агарвал, Кетан Мехта, Депеш Шах, Урми Махержи, Фероз (Josh Hamilton, Ayesha Dharker, Asif Basra, Sudha Shivpuri, Larry Pine, Saurabh Agarwal, Ketan Mehta, Depesh Shah, Urmi Mukherjee, Feroz)
Описание: Романтическая комедия о забавных взаимоотношениях людей различных культур, рассказывающая о неожиданных переменах в жизни обычного американца, менеджера из Сиэтла по имени Тодд Андерсон. Ничем не примечательный ход событий его жизни вдруг переворачивает сообщение босса о том, что новым местом его работы вскоре должна стать далекая Индия. Весь ужас происходящего усугубился обидой на несправедливые обвинения в его адрес, а условия, поставленные шефом, просто вынуждают Тодда выехать в непонятный ему чужой мир. То, что происходит впоследствии, заставляет героя вместе со зрителем не раз задуматься о том, что всем нам неплохо бы побольше знать об окружающем мире, и что сбежавшая работа может стать для нас лучшим из возможных событий...
Доп. информация: Автор рипа - AmPirCo. Добавлены русская дорожка и русские субтитры, взятые с DVD R5. На протяжении фильма периодически появляется лого телеканала.
Сэмпл
Тип релиза: HDTVRip 720p
Контейнер: MKV
Видео: 1280x720p (16:9), 23,976 fps, x264, 6790 kbps
Аудио 1: Russian (Dolby AC3, 6 ch) 384 Kbps / 48 000 Hz
Аудио 2: English (Dolby AC3, 6 ch) 384 Kbps / 48 000 Hz
Субтитры: Russian, English

MediaInfo

Уникальный идентификатор : 227129303671744363951541296289824571520 (0xAADF83418C20240A88A964CCD2970080)
Полное имя : Outsourced.(2006).HDTVRip.720p.x264.AC3.RUS.ENG.Sub.RUS.ENG.mkv
Формат : Matroska
Версия формата : Version 4 / Version 2
Размер файла : 5,40 Гбайт
Продолжительность : 1 ч. 42 м.
Общий поток : 7559 Кбит/сек
Название фильма : Outsourced (2006) HDTVRip 720p
Дата кодирования : UTC 2015-05-16 10:35:59
Программа кодирования : mkvmerge v7.9.0 ('Birds') 32bit
Библиотека кодирования : libebml v1.3.1 + libmatroska v1.4.2
DURATION : 01:38:25.456000000
NUMBER_OF_FRAMES : 956
NUMBER_OF_BYTES : 75406
_STATISTICS_WRITING_APP : mkvmerge v7.9.0 ('Birds') 32bit
_STATISTICS_WRITING_DATE_UTC : 2015-05-16 10:35:59
_STATISTICS_TAGS : BPS DURATION NUMBER_OF_FRAMES NUMBER_OF_BYTES
Видео
Идентификатор : 1
Формат : AVC
Формат/Информация : Advanced Video Codec
Профиль формата : High@L4.1
Параметр CABAC формата : Да
Параметр ReFrames формата : 9 кадров
Идентификатор кодека : V_MPEG4/ISO/AVC
Продолжительность : 1 ч. 42 м.
Битрейт : 6790 Кбит/сек
Ширина : 1280 пикселей
Высота : 720 пикселей
Соотношение сторон : 16:9
Режим частоты кадров : Постоянный
Частота кадров : 23,976 кадра/сек
Цветовое пространство : YUV
Субдискретизация насыщенности : 4:2:0
Битовая глубина : 8 бит
Тип развёртки : Прогрессивная
Бит/(Пиксели*Кадры) : 0.307
Размер потока : 4,75 Гбайт (88%)
Библиотека кодирования : x264 core 146 r2538 121396c
Настройки программы : cabac=1 / ref=9 / deblock=1:-3:-3 / analyse=0x3:0x113 / me=umh / subme=10 / psy=1 / psy_rd=1.05:0.00 / mixed_ref=1 / me_range=32 / chroma_me=1 / trellis=2 / 8x8dct=1 / cqm=0 / deadzone=21,11 / fast_pskip=0 / chroma_qp_offset=-2 / threads=6 / lookahead_threads=1 / sliced_threads=0 / nr=0 / decimate=1 / interlaced=0 / bluray_compat=0 / constrained_intra=0 / bframes=6 / b_pyramid=2 / b_adapt=2 / b_bias=0 / direct=3 / weightb=1 / open_gop=0 / weightp=2 / keyint=240 / keyint_min=23 / scenecut=40 / intra_refresh=0 / rc_lookahead=50 / rc=2pass / mbtree=0 / bitrate=6790 / ratetol=1.0 / qcomp=0.60 / qpmin=10 / qpmax=51 / qpstep=4 / cplxblur=20.0 / qblur=0.5 / vbv_maxrate=62500 / vbv_bufsize=78125 / nal_hrd=none / filler=0 / ip_ratio=1.40 / pb_ratio=1.30 / aq=1:1.00
Язык : English
Default : Да
Forced : Нет
DURATION : 01:42:21.386000000
NUMBER_OF_FRAMES : 147246
NUMBER_OF_BYTES : 5211696567
_STATISTICS_WRITING_APP : mkvmerge v7.9.0 ('Birds') 32bit
_STATISTICS_WRITING_DATE_UTC : 2015-05-16 10:35:59
_STATISTICS_TAGS : BPS DURATION NUMBER_OF_FRAMES NUMBER_OF_BYTES
Аудио #1
Идентификатор : 2
Формат : AC-3
Формат/Информация : Audio Coding 3
Расширение режима : CM (complete main)
Параметр Endianness формата : Big
Идентификатор кодека : A_AC3
Продолжительность : 1 ч. 42 м.
Вид битрейта : Постоянный
Битрейт : 384 Кбит/сек
Каналы : 6 каналов
Расположение каналов : Front: L C R, Side: L R, LFE
Частота : 48,0 КГц
Битовая глубина : 16 бит
Метод сжатия : С потерями
Размер потока : 281 Мбайт (5%)
Язык : Russian
Default : Да
Forced : Нет
Аудио #2
Идентификатор : 3
Формат : AC-3
Формат/Информация : Audio Coding 3
Расширение режима : CM (complete main)
Параметр Endianness формата : Big
Идентификатор кодека : A_AC3
Продолжительность : 1 ч. 42 м.
Вид битрейта : Постоянный
Битрейт : 384 Кбит/сек
Каналы : 6 каналов
Расположение каналов : Front: L C R, Side: L R, LFE
Частота : 48,0 КГц
Битовая глубина : 16 бит
Метод сжатия : С потерями
Размер потока : 281 Мбайт (5%)
Язык : English
Default : Нет
Forced : Нет
Текст #1
Идентификатор : 4
Формат : UTF-8
Идентификатор кодека : S_TEXT/UTF8
Идентификатор кодека/Информация : UTF-8 Plain Text
Язык : Russian
Default : Нет
Forced : Нет
Текст #2
Идентификатор : 5
Формат : UTF-8
Идентификатор кодека : S_TEXT/UTF8
Идентификатор кодека/Информация : UTF-8 Plain Text
Язык : English
Default : Нет
Forced : Нет

Скриншоты


_________________
Показать сообщения:    

Текущее время: Сегодня 22:14

Часовой пояс: GMT



Вы не можете начинать темы
Вы не можете отвечать на сообщения
Вы не можете редактировать свои сообщения
Вы не можете удалять свои сообщения
Вы не можете голосовать в опросах
Вы не можете прикреплять файлы к сообщениям
Вы не можете скачивать файлы