Важное объявление!
У Нас Все раздачи мультитрекерные, при нуле пиров в релизах, можете смело вставать на закачку!
 
Автор Сообщение

HUNTER

Стаж:
4 года 4 месяца
Сообщений:
56798

Репутация: 101

[+] [-]
Вне форума [Профиль] [ЛС]

Сахар / Le sucre-
Страна: Франция
Жанр: триллер, драма, криминал
Год выпуска: 1978
Продолжительность: 01:43:25-Перевод: Профессиональный (многоголосый закадровый)
Оригинальная аудиодорога: French
Cубтитры: French (SDH)
Навигация по главам: Присутствует-Режиссер: Жак Руфьё / Jacques Rouffio
В ролях: Жан Карме, Жерар Депардье, Мишель Пикколи, Нелли Боржо, Жорж Декриер, Роже Анен, Марта Виллалонга, Жан-Поль Мюэль, Клод Пьеплю-Описание: Адриен Куртуа, муж зажиточной хозяйки аптеки, однажды решил на деньги жены поиграть на товарной бирже. И конечно же он попадает в лапы «акулам с Уолл-стрит» в лице нечестного брокера Рауля Омекура, сахарного олигарха Грезильо, биржевого спекулянта Карбуи и других ушлых прощелыг крупного и среднего формата, затеявших биржевую аферу с сахаром. Доверчивый бедолага Куртуа на деньги жены впрягся в рискованную игру, и до поры до времени дела у него шли неплохо…-
Download sample-Качество видео: BDRip 720p
Формат видео: MKV-Видео: AVC, 1194x720 (1.658), 24.000 fps, 8 300 Kbps (0.402 bit/pixel)
Аудио №1: 48 kHz, AC3, 2/0 (L,R) ch, ~192.00 kbps avg | Профессиональный (многоголосый закадровый)
Аудио №2: 48 kHz/16-bit, DTS, 1/0 (L) ch, ~768.00 kbps avg | English-

Notes

Сохранены оригинальные чаптеры как на Blu-Ray.
За ремукс спасибо xamster
Рип от CRiSC

MediaInfo

General
Unique ID : 222611077952663840696077575290600377369 (0xA779558774964505AFF3EA2063754C19)
Complete name : D:\Фильмы\Le.sucre.1978.720p.BluRay.Rus.Fre.HDCLUB.mkv
Format : Matroska
Format version : Version 2
File size : 6.69 GiB
Duration : 1h 43mn
Overall bit rate : 9 261 Kbps
Encoded date : UTC 2014-03-14 16:47:41
Writing application : mkvmerge v5.7.0 ('The Whirlwind') built on Jul 8 2012 20:08:51
Writing library : libebml v1.2.3 + libmatroska v1.3.0
Video
ID : 1
Format : AVC
Format/Info : Advanced Video Codec
Format profile : High@L4.1
Format settings, CABAC : Yes
Format settings, ReFrames : 9 frames
Codec ID : V_MPEG4/ISO/AVC
Duration : 1h 43mn
Bit rate : 8 300 Kbps
Width : 1 194 pixels
Height : 720 pixels
Display aspect ratio : 1.658
Frame rate mode : Constant
Frame rate : 24.000 fps
Color space : YUV
Chroma subsampling : 4:2:0
Bit depth : 8 bits
Scan type : Progressive
Bits/(Pixel*Frame) : 0.402
Stream size : 5.86 GiB (88%)
Writing library : x264 core 125 r2200 999b753
Encoding settings : cabac=1 / ref=9 / deblock=1:-3:-3 / analyse=0x3:0x133 / me=umh / subme=11 / psy=1 / psy_rd=1.05:0.00 / mixed_ref=1 / me_range=48 / chroma_me=1 / trellis=2 / 8x8dct=1 / cqm=0 / deadzone=21,11 / fast_pskip=0 / chroma_qp_offset=-2 / threads=12 / lookahead_threads=2 / sliced_threads=0 / nr=0 / decimate=1 / interlaced=0 / bluray_compat=0 / constrained_intra=0 / bframes=9 / b_pyramid=2 / b_adapt=2 / b_bias=0 / direct=3 / weightb=1 / open_gop=0 / weightp=2 / keyint=250 / keyint_min=23 / scenecut=40 / intra_refresh=0 / rc_lookahead=40 / rc=2pass / mbtree=0 / bitrate=8300 / ratetol=1.0 / qcomp=0.60 / qpmin=0 / qpmax=69 / qpstep=4 / cplxblur=20.0 / qblur=0.5 / vbv_maxrate=62500 / vbv_bufsize=78125 / nal_hrd=none / ip_ratio=1.40 / pb_ratio=1.30 / aq=1:0.80
Language : French
Default : Yes
Forced : No
Audio #1
ID : 2
Format : AC-3
Format/Info : Audio Coding 3
Mode extension : CM (complete main)
Format settings, Endianness : Big
Codec ID : A_AC3
Duration : 1h 43mn
Bit rate mode : Constant
Bit rate : 192 Kbps
Channel count : 2 channels
Channel positions : Front: L R
Sampling rate : 48.0 KHz
Bit depth : 16 bits
Compression mode : Lossy
Stream size : 142 MiB (2%)
Title : |Многоголосый закадровый|
Language : Russian
Default : Yes
Forced : No
Audio #2
ID : 3
Format : DTS
Format/Info : Digital Theater Systems
Mode : 16
Format settings, Endianness : Big
Codec ID : A_DTS
Duration : 1h 43mn
Bit rate mode : Constant
Bit rate : 768 Kbps
Channel count : 1 channel
Channel positions : Front: C
Sampling rate : 48.0 KHz
Bit depth : 16 bits
Compression mode : Lossy
Stream size : 568 MiB (8%)
Language : French
Default : No
Forced : No
Text
ID : 4
Format : UTF-8
Codec ID : S_TEXT/UTF8
Codec ID/Info : UTF-8 Plain Text
Title : SDH
Language : French
Default : No
Forced : No
Menu
00:00:00.000 : :00:00:00.000
00:10:01.541 : :00:10:01.541
00:20:20.250 : :00:20:20.250
00:26:41.333 : :00:26:41.333
00:37:27.375 : :00:37:27.375
00:47:28.666 : :00:47:28.666
00:56:06.458 : :00:56:06.458
01:06:38.083 : :01:06:38.083
01:11:51.916 : :01:11:51.916
01:19:28.125 : :01:19:28.125
01:27:37.875 : :01:27:37.875
01:34:55.125 : :01:34:55.125

Screenshots


_________________
Показать сообщения:    

Текущее время: Сегодня 22:24

Часовой пояс: GMT



Вы не можете начинать темы
Вы не можете отвечать на сообщения
Вы не можете редактировать свои сообщения
Вы не можете удалять свои сообщения
Вы не можете голосовать в опросах
Вы не можете прикреплять файлы к сообщениям
Вы не можете скачивать файлы