Важное объявление!
У Нас Все раздачи мультитрекерные, при нуле пиров в релизах, можете смело вставать на закачку!
 
Автор Сообщение

HUNTER

Стаж:
4 года 4 месяца
Сообщений:
56822

Репутация: 101

[+] [-]
Вне форума [Профиль] [ЛС]

Сарила: Затерянная земля / The Legend of Sarila
«Discover the wonder. Follow the magic. Find the promised land»
Год выпуска: 2013
Страна: Канада
Жанр: мультфильм, приключения
Продолжительность: 01:21:37
Перевод: Профессиональный (Дублированный)
Русские субтитры: нет
Режиссёр: Нэнси Севард: Nancy Florence Savard
Роли озвучивали: Кристофер Пламмер, Рашель Лефевр, Дастин Миллиган, Тим Розон, Женевьев Бюжо, Джеймс Кидни, Тайрон Бенскин, Анджела Галуппо, Илайс Туфексис, Роберт Хигден
Роли дублировали: Михаил Бескаравайный, Наталья Терешкова, Михаил Тихонов, Дмитрий Поляновский, Галина Казакова
Описание: Далеко на севере лагерь эскимосов-кочевников находится под угрозой голода и вымирания. Шаман племени, Крулик, не в силах помочь, и людей охватывает отчаяние. Некоторые из них обретают надежду в древней легенде о далёкой Сариле — земле, спрятанной среди ледников, в которой не существует холода и голода. Легенда гласит, что только те, кто чист сердцем, могут попасть в это священное место. Трое молодых людей соглашаются отправиться на поиски Сарилы, чтобы спасти своё племя. Среди них — юный Маркусси, обладающий способностями шамана...- | Совместный релиз: и -Качество: HDRip
Формат: AVI
Видео: 720x384 (1.88:1), 23.976 fps, XviD ~1138 kbps, 0.17 bit/pixel
Аудио: 48 kHz, MP3, 2 ch, ~128.00 kbps
Субтитры: нет

Отчет MI

GeneralComplete name : Sarila.Zateryannaya.Zemlya.2013.HDRip_Olu6ka_745.aviFormat : AVIFormat/Info : Audio Video InterleaveFile size : 745 MiBDuration : 1h 21mnOverall bit rate : 1 276 KbpsWriting application : VirtualDubMod 1.5.10.3Writing library : VirtualDubMod build 2550/release
VideoID : 0Format : MPEG-4 VisualFormat profile : Advanced Simple@L5Format settings, BVOP : 1Format settings, QPel : NoFormat settings, GMC : No warppointsFormat settings, Matrix : CustomCodec ID : XVIDCodec ID/Hint : XviDDuration : 1h 21mnBit rate : 1 139 KbpsWidth : 720 pixelsHeight : 384 pixelsDisplay aspect ratio : 1.85:1Frame rate : 23.976 fpsColor space : YUVChroma subsampling : 4:2:0Bit depth : 8 bitsScan type : ProgressiveCompression mode : LossyBits/(Pixel*Frame) : 0.172Stream size : 665 MiB (89%)Writing library : XviD 73
AudioID : 1Format : MPEG AudioFormat version : Version 1Format profile : Layer 3Codec ID : 55Codec ID/Hint : MP3Duration : 1h 21mnBit rate mode : ConstantBit rate : 128 KbpsChannel count : 2 channelsSampling rate : 48.0 KHzCompression mode : LossyStream size : 74.7 MiB (10%)Alignment : Aligned on interleavesInterleave, duration : 42 ms (1.00 video frame)Interleave, preload duration : 504 msWriting library : LAME3.99rEncoding settings : -m s -V 4 -q 2 -lowpass 17 -b 128

Сравнение


http://rutracker.org/forum/viewtopic.php?t=4935171 - не выполнен кроп
http://screenshotcomparison.com/comparison/121849/
плюс - слегка нарушен аспект

_________________
Показать сообщения:    

Текущее время: Сегодня 21:29

Часовой пояс: GMT



Вы не можете начинать темы
Вы не можете отвечать на сообщения
Вы не можете редактировать свои сообщения
Вы не можете удалять свои сообщения
Вы не можете голосовать в опросах
Вы не можете прикреплять файлы к сообщениям
Вы не можете скачивать файлы