Важное объявление!
У Нас Все раздачи мультитрекерные, при нуле пиров в релизах, можете смело вставать на закачку!
 
Автор Сообщение

HUNTER

Стаж:
4 года 4 месяца
Сообщений:
56772

Репутация: 101

[+] [-]
Вне форума [Профиль] [ЛС]

Санкция на пике Эйгера / The Eiger Sanction
Страна: США
Студия: Universal Pictures, The Malpaso Company
Жанр: боевик, триллер, мелодрама, приключения
Год выпуска: 1975
Продолжительность: 02:08:54
Перевод: Профессиональный (дублированный)
Перевод 2: Профессиональный (многоголосый закадровый) ОРТ
Перевод 3: Профессиональный (многоголосый закадровый)
Cубтитры: русские, английские
Оригинальная аудиодорожка: английский
Режиссер: Клинт Иствуд / Clint Eastwood
В ролях: Клинт Иствуд, Джордж Кеннеди, Вонетта МакГи, Джек Кэссиди, Хайди Брюль, Тэйер Дэвид, Рейнер Шёне, Михаэль Гримм, Жан-Пьер Бернар, Бренда Венус
Описание: Джонатан Хемлок — ушедший в отставку агент правительственных спецслужб, теперь занимается педагогической деятельностью в колледже искусств. Однако зарплаты педагога, разумеется, не хватает на удовлетворение его главной страсти — коллекционирования живописных полотен, поэтому время от времени Джонатан принимает на себя новые секретные задание.
Новая миссия — одна из самых опасных в карьере. Он должен «вычислить» и уничтожить шпиона, находящегося в составе альпинистской группы. Для этого ему придется вместе со всеми совершить восхождение на опасный пик Эйгер в Швейцарских Альпах…
Кинопоиск|Imdb|Сэмпл
Тип релиза: BDRip 1080p
Контейнер: MKV
Видео: MPEG4 Video (H264) 1920x816 23.976fps 16.1 Mbps
Аудио: Русский DTS / 2 ch / 48.0 KHz / 447 Kbps
Аудио 2: Русский AC-3 / 2 ch / 48.0 KHz / 192 Kbps / ОРТ
Аудио 3: Русский AC-3 / 2 ch / 48.0 KHz / 192 Kbps
Аудио 4: Английский DTS / 2 ch / 48.0 KHz / 1 509 Kbps
Формат субтитров: softsub (SRT)

MediaInfo

General
Unique ID : 196863455104161297552647606721625355947 (0x941A85B65FDD9ACD99CED5504CE276AB)
Complete name : C:\Users\Вика\Desktop\The.Eiger.Sanction.1975.BDRip.1080p.mkv
Format : Matroska
Format version : Version 4 / Version 2
File size : 16.6 GiB
Duration : 2h 8mn
Overall bit rate : 18.4 Mbps
Encoded date : UTC 2014-11-26 06:13:32
Writing application : mkvmerge v6.9.1 ('Blue Panther') 64bit built on Apr 18 2014 18:23:38
Writing library : libebml v1.3.0 + libmatroska v1.4.1
Video
ID : 1
Format : AVC
Format/Info : Advanced Video Codec
Format profile : High@L4.1
Format settings, CABAC : Yes
Format settings, ReFrames : 5 frames
Codec ID : V_MPEG4/ISO/AVC
Duration : 2h 8mn
Bit rate : 16.1 Mbps
Width : 1 920 pixels
Height : 816 pixels
Display aspect ratio : 2.35:1
Frame rate mode : Constant
Frame rate : 23.976 fps
Color space : YUV
Chroma subsampling : 4:2:0
Bit depth : 8 bits
Scan type : Progressive
Bits/(Pixel*Frame) : 0.429
Stream size : 14.2 GiB (85%)
Title : MPEG-4AVC@High Profile L4.1, 24/1.001 fps @ 16100 kbps
Writing library : x264 core 142 r2453 ea0ca51
Encoding settings : cabac=1 / ref=5 / deblock=1:-3:-3 / analyse=0x3:0x133 / me=umh / subme=11 / psy=1 / psy_rd=1.00:0.00 / mixed_ref=1 / me_range=32 / chroma_me=1 / trellis=2 / 8x8dct=1 / cqm=0 / deadzone=21,11 / fast_pskip=0 / chroma_qp_offset=-2 / threads=24 / lookahead_threads=2 / sliced_threads=0 / nr=0 / decimate=0 / interlaced=0 / bluray_compat=0 / constrained_intra=0 / bframes=6 / b_pyramid=2 / b_adapt=2 / b_bias=0 / direct=3 / weightb=1 / open_gop=0 / weightp=2 / keyint=240 / keyint_min=23 / scenecut=40 / intra_refresh=0 / rc_lookahead=60 / rc=2pass / mbtree=1 / bitrate=16100 / ratetol=1.0 / qcomp=0.60 / qpmin=0 / qpmax=69 / qpstep=4 / cplxblur=20.0 / qblur=0.5 / vbv_maxrate=45000 / vbv_bufsize=45000 / nal_hrd=none / filler=0 / ip_ratio=1.40 / aq=1:0.60
Language : English
Default : Yes
Forced : No
DURATION : 02:08:53.685000000
NUMBER_OF_FRAMES : 185423
NUMBER_OF_BYTES : 15564929293
_STATISTICS_WRITING_APP : mkvmerge v7.1.0 ('Good Love') 64bit built on Jul 27 2014 13:06:55
_STATISTICS_WRITING_DATE_UTC : 2014-08-18 06:32:31
_STATISTICS_TAGS : BPS DURATION NUMBER_OF_FRAMES NUMBER_OF_BYTES
Audio #1
ID : 2
Format : DTS
Format/Info : Digital Theater Systems
Mode : 16
Format settings, Endianness : Big
Codec ID : A_DTS
Duration : 2h 8mn
Bit rate mode : Constant
Bit rate : 447 Kbps
Channel count : 2 channels
Channel positions : Front: L R
Sampling rate : 48.0 KHz
Bit depth : 24 bits
Compression mode : Lossy
Stream size : 412 MiB (2%)
Title : Дубляж
Language : Russian
Default : Yes
Forced : No
Audio #2
ID : 3
Format : AC-3
Format/Info : Audio Coding 3
Mode extension : CM (complete main)
Format settings, Endianness : Big
Codec ID : A_AC3
Duration : 2h 8mn
Bit rate mode : Constant
Bit rate : 192 Kbps
Channel count : 2 channels
Channel positions : Front: L R
Sampling rate : 48.0 KHz
Bit depth : 16 bits
Compression mode : Lossy
Stream size : 177 MiB (1%)
Title : MVO (ОРТ)
Language : Russian
Default : No
Forced : No
Audio #3
ID : 4
Format : AC-3
Format/Info : Audio Coding 3
Mode extension : CM (complete main)
Format settings, Endianness : Big
Codec ID : A_AC3
Duration : 2h 8mn
Bit rate mode : Constant
Bit rate : 192 Kbps
Channel count : 2 channels
Channel positions : Front: L R
Sampling rate : 48.0 KHz
Bit depth : 16 bits
Compression mode : Lossy
Stream size : 177 MiB (1%)
Title : MVO
Language : Russian
Default : No
Forced : No
Audio #4
ID : 5
Format : DTS
Format/Info : Digital Theater Systems
Mode : 16
Format settings, Endianness : Big
Codec ID : A_DTS
Duration : 2h 8mn
Bit rate mode : Constant
Bit rate : 1 509 Kbps
Channel count : 2 channels
Channel positions : Front: L R
Sampling rate : 48.0 KHz
Bit depth : 24 bits
Compression mode : Lossy
Stream size : 1.36 GiB (8%)
Title : English
Language : English
Default : No
Forced : No
Text #1
ID : 6
Format : UTF-8
Codec ID : S_TEXT/UTF8
Codec ID/Info : UTF-8 Plain Text
Language : Russian
Default : No
Forced : No
Text #2
ID : 7
Format : UTF-8
Codec ID : S_TEXT/UTF8
Codec ID/Info : UTF-8 Plain Text
Language : English
Default : No
Forced : No
Menu
00:00:00.000 : en:00:00:00.000
00:09:03.251 : en:00:09:03.251
00:13:14.961 : en:00:13:14.961
00:17:59.787 : en:00:17:59.787
00:22:35.521 : en:00:22:35.521
00:30:11.101 : en:00:30:11.101
00:40:31.721 : en:00:40:31.721
00:58:51.403 : en:00:58:51.403
01:06:15.054 : en:01:06:15.054
01:19:00.402 : en:01:19:00.402
01:31:45.917 : en:01:31:45.917
01:42:52.958 : en:01:42:52.958
01:47:10.924 : en:01:47:10.924
01:54:17.559 : en:01:54:17.559
01:59:59.943 : en:01:59:59.943
02:06:39.801 : en:02:06:39.801

Скриншоты


_________________
Показать сообщения:    

Текущее время: Сегодня 12:55

Часовой пояс: GMT



Вы не можете начинать темы
Вы не можете отвечать на сообщения
Вы не можете редактировать свои сообщения
Вы не можете удалять свои сообщения
Вы не можете голосовать в опросах
Вы не можете прикреплять файлы к сообщениям
Вы не можете скачивать файлы