Важное объявление!
У Нас Все раздачи мультитрекерные, при нуле пиров в релизах, можете смело вставать на закачку!
 
Автор Сообщение

HUNTER

Стаж:
4 года 4 месяца
Сообщений:
56790

Репутация: 101

[+] [-]
Вне форума [Профиль] [ЛС]

-Санктум / Sanctum
«Единственное спасение - глубина»-
-Год выпуска: 2011
Страна: США, Австралия
Жанр: Триллер, Драма, Приключения
Продолжительность: 01:48:42-Перевод: Профессиональный (дублированный)-Субтитры: Русские, Английские-Режиссер : Алистер Грирсон / Alister Grierson-В ролях: Ричард Роксбург, Риз Уэйкфилд, Йоан Гриффит, Элис Паркинсон, Дэниэл Уилли, Кристофер Бэйкер, Элисон Крэтчли, Крамер Кэйн, Эндрю Хансен, Джон Гарвин-Роли озвучивали: Андрей Фединчик, Андрей Мостренко, Ольга Радчук, Михаил Жонин, Андрей Саминин-Описание: Группа дайверов предпринимает очень рискованную экспедицию в самую большую систему пещер на Земле - невероятно красивую и почти недоступную. Неожиданный тропический шторм вынуждает их спуститься глубоко в пещеры. Единственное спасение для исследователей - найти неизвестный второй выход к морю, преодолевая неистовую стихию бушующих вод, коварные ловушки подземелий и смертельный ужас...- - -Качество: BDRip
Контейнер: MKV
Формат 3D: Half OverUnder / Вертикальная анаморфная стереопара
Порядок ракурсов: левый ракурс первый
Видео кодек: x264
Аудио кодек: DTS-Видео: MPEG-4 AVC, 1920x1080 (16:9), 23.976 fps, ~18000 kbps avg, 0.362 bit/pixel
Аудио 1: 48 kHz, DTS, 3/2 (L,C,R,l,r) + LFE ch, ~1509 kbps avg
Аудио 2: 48 kHz, DTS, 3/2 (L,C,R,l,r) + LFE ch, ~1509 kbps avg-

MediaInfo

Complete name : D:\РАЗДАЧИ\Sanctum 3D (2011) BDRip 1080p.mkv
Format : Matroska
Format version : Version 2
File size : 16.0 GiB
Duration : 1h 48mn
Overall bit rate : 21.0 Mbps
Movie name : Sanctum 3D (2011) BDRip 1080p
Encoded date : UTC 2016-03-02 05:22:15
Writing application : mkvmerge v3.0.0 ('Hang up your Hang-Ups') built on Dec 12 2009 15:20:35
Writing library : libebml v0.7.9 + libmatroska v0.8.1
Cover : Yes
Attachments : cover.jpg
Video
ID : 1
Format : AVC
Format/Info : Advanced Video Codec
Format profile : High@L4.1
Format settings, CABAC : Yes
Format settings, ReFrames : 4 frames
Codec ID : V_MPEG4/ISO/AVC
Duration : 1h 48mn
Bit rate : 18.0 Mbps
Width : 1 920 pixels
Height : 1 080 pixels
Display aspect ratio : 16:9
Frame rate mode : Constant
Frame rate : 23.976 (24000/1001) fps
Color space : YUV
Chroma subsampling : 4:2:0
Bit depth : 8 bits
Scan type : Progressive
Bits/(Pixel*Frame) : 0.362
Stream size : 13.3 GiB (84%)
Writing library : x264 core 129 r2230 1cffe9f
Encoding settings : cabac=1 / ref=4 / deblock=1:-3:-3 / analyse=0x3:0x113 / me=tesa / subme=11 / psy=1 / psy_rd=0.85:0.05 / mixed_ref=1 / me_range=48 / chroma_me=1 / trellis=2 / 8x8dct=1 / cqm=0 / deadzone=21,11 / fast_pskip=0 / chroma_qp_offset=-3 / threads=12 / lookahead_threads=2 / sliced_threads=0 / nr=0 / decimate=0 / interlaced=0 / bluray_compat=0 / constrained_intra=0 / bframes=8 / b_pyramid=2 / b_adapt=2 / b_bias=0 / direct=3 / weightb=1 / open_gop=0 / weightp=2 / keyint=250 / keyint_min=23 / scenecut=40 / intra_refresh=0 / rc=2pass / mbtree=0 / bitrate=18000 / ratetol=1.0 / qcomp=0.60 / qpmin=10 / qpmax=69 / qpstep=4 / cplxblur=20.0 / qblur=0.5 / ip_ratio=1.40 / pb_ratio=1.30 / aq=1:0.60
Language : English
Default : No
Forced : No
Audio #1
ID : 2
Format : DTS
Format/Info : Digital Theater Systems
Mode : 16
Format settings, Endianness : Big
Codec ID : A_DTS
Duration : 1h 48mn
Bit rate mode : Constant
Bit rate : 1 509 Kbps
Channel(s) : 6 channels
Channel positions : Front: L C R, Side: L R, LFE
Sampling rate : 48.0 KHz
Frame rate : 93.750 fps (512 spf)
Bit depth : 16 bits
Compression mode : Lossy
Stream size : 1.15 GiB (7%)
Title : Дубляж
Language : Russian
Default : Yes
Forced : No
Audio #2
ID : 3
Format : DTS
Format/Info : Digital Theater Systems
Mode : 16
Format settings, Endianness : Big
Codec ID : A_DTS
Duration : 1h 48mn
Bit rate mode : Constant
Bit rate : 1 509 Kbps
Channel(s) : 6 channels
Channel positions : Front: L C R, Side: L R, LFE
Sampling rate : 48.0 KHz
Frame rate : 93.750 fps (512 spf)
Bit depth : 24 bits
Compression mode : Lossy
Stream size : 1.15 GiB (7%)
Title : Original
Language : English
Default : No
Forced : No
Text #1
ID : 4
Format : UTF-8
Codec ID : S_TEXT/UTF8
Codec ID/Info : UTF-8 Plain Text
Title : Russian
Language : Russian
Default : No
Forced : No
Text #2
ID : 5
Format : UTF-8
Codec ID : S_TEXT/UTF8
Codec ID/Info : UTF-8 Plain Text
Title : English
Language : English
Default : No
Forced : No
Menu
00:00:00.000 : en:(01)00:00:00:000
00:04:57.046 : en:(02)00:04:57:046
00:08:42.313 : en:(03)00:08:42:313
00:14:17.231 : en:(04)00:14:17:231
00:20:40.989 : en:(05)00:20:40:989
00:27:02.746 : en:(06)00:27:02:746
00:30:57.355 : en:(07)00:30:57:355
00:33:50.361 : en:(08)00:33:50:361
00:44:17.237 : en:(09)00:44:17:237
00:48:52.763 : en:(10)00:48:52:763
00:54:57.919 : en:(11)00:54:57:919
00:59:05.250 : en:(12)00:59:05:250
01:07:03.394 : en:(13)01:07:03:394
01:14:24.585 : en:(14)01:14:24:585
01:19:58.001 : en:(15)01:19:58:001
01:24:36.738 : en:(16)01:24:36:738
01:28:26.134 : en:(17)01:28:26:134
01:32:08.064 : en:(18)01:32:08:064
01:39:22.790 : en:(19)01:39:22:790
01:43:24.823 : en:(20)01:43:24:823
01:48:41.515 : en:(21)01:48:41:515

Скриншоты


_________________
Показать сообщения:    

Текущее время: Сегодня 08:40

Часовой пояс: GMT



Вы не можете начинать темы
Вы не можете отвечать на сообщения
Вы не можете редактировать свои сообщения
Вы не можете удалять свои сообщения
Вы не можете голосовать в опросах
Вы не можете прикреплять файлы к сообщениям
Вы не можете скачивать файлы