Важное объявление!
У Нас Все раздачи мультитрекерные, при нуле пиров в релизах, можете смело вставать на закачку!
 
Автор Сообщение

HUNTER

Стаж:
4 года 4 месяца
Сообщений:
56808

Репутация: 101

[+] [-]
Вне форума [Профиль] [ЛС]

Самый страшный фильм
Dead Before Dawn
-
Год выпуска: 2012
Страна: Канада (Wango Films)
Жанр: Ужасы, Комедия
Продолжительность: 01:28:23
Перевод: Профессиональный (дублированный)
Русские субтитры: нет
Режиссер: Эйприл Маллен / April Mullen-Роли озвучивали (дублировали):

Casper Galloway - Девон Бостик (Антон Савенков)
Horus Galloway - Кристофер Ллойд (Никита Джигурда)
Charlotte Baker - Марта МакАйсак (Ольга Голованова)
Dazzle Darlington - Брэндон Джей МакЛарен (L’One ["#давайдосвиданья"])
Lucy Winthrop - Бриттани Аллен (Светлана Курицына)
Becky Fords - Эйприл Маллен
Seth Munday - Тим Дойрон (Александр Дасевич)
Professor Reginald Duffy - Кевин МакДональд (Владимир Рыбальченко)
Beverly Galloway - Эллен Дубин
Patrick Bishop - Кайл Шмид
Burt Rumsfeld - Россиф Сазерленд (Валентин Стрыкало)
-Описание: Комедийная пародия на фильмы о зомби. Оставшись за главного в лавке древностей, принадлежащей его деду, Каспер, и его друзья по колледжу, случайно разбивают старинный артефакт и обрушивают себе на голову древнее проклятье. Теперь, стоит им только взглянуть на кого-нибудь, как тот убивает себя, а потом воскресает зомбаком! Пока друзья разбирались в чем тут дело, половина города успела превратится в зомби. Зомбаками стали даже ребята из сборной колледжа по футболу и девчонки из группы поддержки. Теперь друзьям необходимо срочно найти способ снять проклятье. Это будет нелегко, но зато очень круто и дико смешно!-Доп. информация: Прежде чем качать, обратите внимание на рейтинги и почитайте где-нибудь отзывы, например, в 2Д-релизах трекера!-Премьера: 28 сентября 2012 (11 октября 2012)
Релиз на DVD: 24 декабря 2012

. .
-Качество: BDRip (by Ash61)
Контейнер: MKV
Формат 3D: Half OverUnder / Вертикальная анаморфная стереопара
Порядок ракурсов: левый ракурс первый
Видео кодек: x264
Аудио кодек: AC3-Видео: AVC / 23,976 fps / 1920х1080p / 9 364 Kbps
Аудио:
#1 - Русский / AC3 / 48 KHz / 5.1 ch / 448 Kbps (Дубляж - R5 [edit by Ash61])
#2 - Английский / AC3 / 48 KHz / 5.1 ch / 640 Kbps (Original)
Субтитры: Отсутствуют

MediaInfo

General
Unique ID : 245066498410569834041066038146862003653 (0xB85E173C6878BD07803261083A99B5C5)
Complete name : G:\Downloads\DeadBeforeDawn(3D)2012.halfOU(Ash61).mkv
Format : Matroska
Format version : Version 2
File size : 6.58 GiB
Duration : 1h 28mn
Overall bit rate : 10.7 Mbps
Movie name : Самый страшный фильм / Dead Before Dawn (3D) 2012 (by Ash61)
Encoded date : UTC 2013-05-11 16:47:19
Writing application : mkvmerge v5.8.0 ('No Sleep / Pillow') built on Sep 2 2012 15:37:04
Writing library : libebml v1.2.3 + libmatroska v1.3.0
Video
ID : 1
Format : AVC
Format/Info : Advanced Video Codec
Format profile : High@L4.1
Format settings, CABAC : Yes
Format settings, ReFrames : 4 frames
Codec ID : V_MPEG4/ISO/AVC
Duration : 1h 28mn
Bit rate : 9 364 Kbps
Width : 1 920 pixels
Height : 1 080 pixels
Display aspect ratio : 16:9
Frame rate mode : Constant
Frame rate : 23.976 fps
Color space : YUV
Chroma subsampling : 4:2:0
Bit depth : 8 bits
Scan type : Progressive
Bits/(Pixel*Frame) : 0.188
Stream size : 5.78 GiB (88%)
Title : BDRip by Ash61
Writing library : x264 core 129 r2245 bc13772
Encoding settings : cabac=1 / ref=4 / deblock=1:-3:-3 / analyse=0x3:0x113 / me=umh / subme=9 / psy=1 / psy_rd=1.00:0.15 / mixed_ref=1 / me_range=32 / chroma_me=1 / trellis=2 / 8x8dct=1 / cqm=0 / deadzone=21,11 / fast_pskip=1 / chroma_qp_offset=-3 / threads=12 / lookahead_threads=2 / sliced_threads=0 / nr=0 / decimate=1 / interlaced=0 / bluray_compat=0 / constrained_intra=0 / bframes=7 / b_pyramid=2 / b_adapt=2 / b_bias=0 / direct=3 / weightb=1 / open_gop=0 / weightp=2 / keyint=250 / keyint_min=23 / scenecut=40 / intra_refresh=0 / rc_lookahead=60 / rc=crf / mbtree=1 / crf=17.5 / qcomp=0.70 / qpmin=0 / qpmax=69 / qpstep=4 / vbv_maxrate=40000 / vbv_bufsize=30000 / crf_max=0.0 / nal_hrd=none / frame-packing=4 / ip_ratio=1.40 / aq=1:0.70
Language : English
Default : Yes
Forced : No
Audio #1
ID : 2
Format : AC-3
Format/Info : Audio Coding 3
Mode extension : CM (complete main)
Format settings, Endianness : Big
Codec ID : A_AC3
Duration : 1h 28mn
Bit rate mode : Constant
Bit rate : 448 Kbps
Channel(s) : 6 channels
Channel positions : Front: L C R, Side: L R, LFE
Sampling rate : 48.0 KHz
Bit depth : 16 bits
Compression mode : Lossy
Stream size : 283 MiB (4%)
Title : Дубляж - R5 (edit by Ash61)
Language : Russian
Default : Yes
Forced : Yes
Audio #2
ID : 3
Format : AC-3
Format/Info : Audio Coding 3
Mode extension : CM (complete main)
Format settings, Endianness : Big
Codec ID : A_AC3
Duration : 1h 28mn
Bit rate mode : Constant
Bit rate : 640 Kbps
Channel(s) : 6 channels
Channel positions : Front: L C R, Side: L R, LFE
Sampling rate : 48.0 KHz
Bit depth : 16 bits
Compression mode : Lossy
Stream size : 405 MiB (6%)
Title : Original
Language : English
Default : No
Forced : No
Menu
00:00:00.000 : :1
00:08:51.239 : :2
00:15:19.961 : :3
00:22:07.535 : :4
00:31:12.621 : :5
00:37:04.055 : :6
00:45:18.299 : :7
00:53:07.684 : :8
00:59:46.208 : :9
01:05:42.647 : :10
01:13:52.345 : :11
01:20:34.663 : :12

Для оценки 3д - Анимированные скрины
















_________________
Показать сообщения:    

Текущее время: Сегодня 10:26

Часовой пояс: GMT



Вы не можете начинать темы
Вы не можете отвечать на сообщения
Вы не можете редактировать свои сообщения
Вы не можете удалять свои сообщения
Вы не можете голосовать в опросах
Вы не можете прикреплять файлы к сообщениям
Вы не можете скачивать файлы