Важное объявление!
У Нас Все раздачи мультитрекерные, при нуле пиров в релизах, можете смело вставать на закачку!
 
Автор Сообщение

HUNTER

Стаж:
4 года 4 месяца
Сообщений:
56765

Репутация: 101

[+] [-]
Вне форума [Профиль] [ЛС]

| Все релизы мультфильма || BDRip 720p, 3.69 GB |- P R E S E N T SСамолеты / Planes-
Страна: США
Жанр: мультфильм, приключения, комедия, семейный
Продолжительность: 01:31:35
Год выпуска: 2013
Перевод: Профессиональный (полное дублирование)
Субтитры: есть-Режиссёр: Клэй Холл / Klay Hall
Роли озвучивали: Дейн Кук, Стейси Кич, Брэд Гэррет, Тери Хэтчер, Джулия Луис-Дрейфус, Приянка Чопра, Джон Клиз, Седрик "Развлекатель", Карлос Алазраки, Роджер Крэйг Смит, Энтони Эдвардс, Вэл Килмер, Синбад, Гэбриел Иглесиас, Брент Мусбургер...
Роли дублировали: Константин Крюков, Нонна Гришаева, Равшана Куркова, Алексей Чумаков, Александр Ноткин, Александр Балакирев, Валерий Смекалов и др.- | | - Рекомендуется присутствие родителей-Описание: Дасти Полейполе - скромный трудяга-самолет, работающий сельскохозяйственным распылителем на заштатном провинциальном аэродроме. Однако это не мешает ему мечтать о том, чтобы однажды принять участие в кругосветных гонках самых быстрых самолетов. Одна незадача - Дасти панически боится большой высоты. Поэтому, когда волею случая он все же попадает в число участников отборочного тура воздушных соревнований, ему приходится искать помощи у ветерана военно-морской авиации, отставного истребителя Шкипера. С помощью мудрого наставника Дасти сможет преодолеть свои слабости и бросить вызов надменному чемпиону Рипслингеру, а весь мир будет с замиранием сердца следить за гонкой в небесах!...-Доп. информация: BDRip 720p (1.778:1) сделан с Blu-Ray диска Planes 2013 1080p Blu-ray AVC DTS-HD MA 7.1-NiP (Локализованный видеоряд).
Отдельное спасибо xfiles за подготовку субтитров.
-Сэмпл/Sample (30.5 MB, 1 минута)-Качество: BDRip 720p
Формат: MKV
Видео: 1280x720 (1.778:1), 23,976 fps, ~4482 kbps avg, 0.203 bit/pixel
Аудио #1: Русский, AC3, 6 ch, 48 kHz, 640 kbps - Дубляж | BD CEE
Аудио #2: English, AC3, 6 ch, 48 kHz, 640 kbps - Original
Субтитры: Русские (полные, форсированные), English (Full, SDH)
Навигация по главам: есть (20 именованных глав)

MediaInfo / x264Log

x264Log
raw [info]: 1280x720p 1:1 @ 24000/1001 fps (cfr)x264 [info]: using SAR=1/1x264 [info]: using cpu capabilities: MMX2 SSE2Fast SSSE3 SSE4.2 AVX XOP FMA4 FMA3 LZCNT BMI1x264 [info]: profile High, level 4.1x264 [info]: frame I:1066 Avg QP:12.05 size:171784 PSNR Mean Y:50.01 U:53.79 V:53.93 Avg:50.61 Global:50.11x264 [info]: frame P:36990 Avg QP:14.68 size: 42087 PSNR Mean Y:48.47 U:54.46 V:54.76 Avg:49.15 Global:48.55x264 [info]: frame B:93698 Avg QP:17.66 size: 14288 PSNR Mean Y:47.69 U:53.36 V:53.65 Avg:48.41 Global:47.75x264 [info]: consecutive B-frames: 4.6% 5.4% 24.2% 27.2% 15.7% 17.3% 2.2% 1.8% 0.5% 0.3% 0.2% 0.2% 0.1% 0.4%x264 [info]: mb I I16..4: 5.2% 61.0% 33.8%x264 [info]: mb P I16..4: 1.5% 13.9% 3.0% P16..4: 20.8% 25.0% 12.2% 3.4% 0.4% skip:19.7%x264 [info]: mb B I16..4: 0.3% 2.4% 0.4% B16..8: 24.4% 18.8% 3.7% direct: 4.9% skip:45.0% L0:39.6% L1:43.2% BI:17.2%x264 [info]: 8x8 transform intra:74.6% inter:48.4%x264 [info]: coded y,uvDC,uvAC intra: 84.3% 84.0% 65.5% inter: 19.4% 17.4% 6.3%x264 [info]: i16 v,h,dc,p: 12% 15% 5% 68%x264 [info]: i8 v,h,dc,ddl,ddr,vr,hd,vl,hu: 8% 17% 10% 8% 10% 9% 12% 10% 16%x264 [info]: i4 v,h,dc,ddl,ddr,vr,hd,vl,hu: 9% 18% 7% 7% 13% 10% 13% 8% 13%x264 [info]: i8c dc,h,v,p: 35% 36% 14% 15%x264 [info]: Weighted P-Frames: Y:3.6% UV:2.8%x264 [info]: ref P L0: 57.9% 8.8% 14.0% 6.2% 4.3% 3.2% 2.5% 1.6% 1.2% 0.3% 0.0%x264 [info]: ref B L0: 76.2% 13.0% 5.1% 2.3% 1.5% 1.1% 0.6% 0.2%x264 [info]: ref B L1: 92.6% 7.4%x264 [info]: SSIM Mean Y:0.9913763 (20.643db)x264 [info]: PSNR Mean Y:47.925 U:53.673 V:53.964 Avg:48.634 Global:47.973 kb/s:4481.95encoded 131754 frames, 7.52 fps, 4481.95 kb/s
GeneralUnique ID : 227522557836940868761169974676026229040 (0xAB2B402EEF686A48A622C1B6B41F0130)Complete name : Planes.2013.Rus.Video.BDRip.720p.dfcbit.mkvFormat : MatroskaFormat version : Version 2File size : 3.69 GiBDuration : 1h 31mnOverall bit rate : 5 764 KbpsEncoded date : UTC 2014-07-17 16:26:42Writing application : mkvmerge v4.0.0 ('The Stars were mine') built on Jun 6 2010 16:18:42Writing library : libebml v1.0.0 + libmatroska v1.0.0
VideoID : 1Format : AVCFormat/Info : Advanced Video CodecFormat profile : High@L4.1Format settings, CABAC : YesFormat settings, ReFrames : 9 framesCodec ID : V_MPEG4/ISO/AVCDuration : 1h 31mnBit rate : 4 482 KbpsWidth : 1 280 pixelsHeight : 720 pixelsDisplay aspect ratio : 16:9Frame rate mode : ConstantFrame rate : 23.976 fpsColor space : YUVChroma subsampling : 4:2:0Bit depth : 8 bitsScan type : ProgressiveBits/(Pixel*Frame) : 0.203Stream size : 2.87 GiB (76%)Title : NTSC, 1280x720 (1.778:1), BDRip 720p - tRuAVC & Multfilmy [DFCbit]Writing library : x264 core 142 r2431kMod ac76440Encoding settings : cabac=1 / ref=9 / deblock=1:-2:-1 / analyse=0x3:0x133 / me=umh / subme=11 / psy=1 / fade_compensate=0.00 / psy_rd=0.63:0.00 / mixed_ref=1 / me_range=32 / chroma_me=1 / trellis=2 / 8x8dct=1 / cqm=0 / deadzone=21,11 / fast_pskip=0 / chroma_qp_offset=-2 / threads=12 / lookahead_threads=3 / sliced_threads=0 / nr=0 / decimate=1 / interlaced=0 / bluray_compat=0 / constrained_intra=0 / fgo=0 / bframes=13 / b_pyramid=2 / b_adapt=2 / b_bias=0 / direct=1 / weightb=1 / open_gop=0 / weightp=2 / keyint=250 / keyint_min=23 / scenecut=40 / intra_refresh=0 / rc_lookahead=70 / rc=2pass / mbtree=0 / bitrate=4482 / ratetol=1.0 / qcomp=0.81 / qpmin=0 / qpmax=69 / qpstep=4 / cplxblur=20.0 / qblur=0.5 / vbv_maxrate=50000 / vbv_bufsize=62500 / nal_hrd=none / filler=0 / ip_ratio=1.40 / pb_ratio=1.30 / aq=3:0.90Language : RussianDefault : YesForced : NoColor primaries : BT.709Transfer characteristics : BT.709Matrix coefficients : BT.709
Audio #1ID : 2Format : AC-3Format/Info : Audio Coding 3Mode extension : CM (complete main)Format settings, Endianness : BigCodec ID : A_AC3Duration : 1h 31mnBit rate mode : ConstantBit rate : 640 KbpsChannel(s) : 6 channelsChannel positions : Front: L C R, Side: L R, LFESampling rate : 48.0 KHzBit depth : 16 bitsCompression mode : LossyStream size : 419 MiB (11%)Title : AC3, 6 ch, 48 kHz, 640 kbps - Дубляж | BD CEELanguage : RussianDefault : YesForced : No
Audio #2ID : 3Format : AC-3Format/Info : Audio Coding 3Mode extension : CM (complete main)Format settings, Endianness : BigCodec ID : A_AC3Duration : 1h 31mnBit rate mode : ConstantBit rate : 640 KbpsChannel(s) : 6 channelsChannel positions : Front: L C R, Side: L R, LFESampling rate : 48.0 KHzBit depth : 16 bitsCompression mode : LossyStream size : 419 MiB (11%)Title : AC3, 6 ch, 48 kHz, 640 kbps - OriginalLanguage : EnglishDefault : NoForced : No
Text #1ID : 4Format : UTF-8Codec ID : S_TEXT/UTF8Codec ID/Info : UTF-8 Plain TextTitle : SRT, ПолныеLanguage : RussianDefault : NoForced : No
Text #2ID : 5Format : UTF-8Codec ID : S_TEXT/UTF8Codec ID/Info : UTF-8 Plain TextTitle : SRT, ФорсированныеLanguage : RussianDefault : NoForced : No
Text #3ID : 6Format : UTF-8Codec ID : S_TEXT/UTF8Codec ID/Info : UTF-8 Plain TextTitle : SRT, FullLanguage : EnglishDefault : NoForced : No
Text #4ID : 7Format : UTF-8Codec ID : S_TEXT/UTF8Codec ID/Info : UTF-8 Plain TextTitle : SRT, (SDH)Language : EnglishDefault : NoForced : No
Menu00:00:00.000 : ru:1. Не просто кукурузник!00:04:41.990 : ru:2. Гонки - не для тебя00:07:23.234 : ru:3. Шкипер00:09:04.294 : ru:4. Гонка со временем00:14:38.085 : ru:5. Дасти в списке00:17:30.549 : ru:6. Тренировка со Шкипером00:24:58.872 : ru:7. Знакомство с участниками00:30:10.767 : ru:8. Гонка начинается00:36:28.186 : ru:9. Подмога00:40:37.518 : ru:10. Дасти выходит вперёд00:42:51.193 : ru:11. План действий00:48:07.801 : ru:12. Стальная лента00:51:37.802 : ru:13. Машина любви00:56:22.378 : ru:14. Над океаном01:00:06.144 : ru:15. Правда о Шкипере01:01:59.924 : ru:16. Падение Дасти01:07:05.312 : ru:17. Так поступают друзья01:10:13.041 : ru:18. Дасти снова в деле01:12:27.134 : ru:19. Последний этап01:16:26.915 : ru:20. В строю

Скриншоты

Скриншот с названием мультфильма / Локализация

В оригинальном видеоряде - раскраска самолета "Таня" отличная от российского триколора
--BDRip 720p


Source Blu-Ray

Релиз от групп | and | -Данный релиз не будет воспроизводиться на бытовых плеерах не поддерживающих MKV и H.264Обсуждение релизов в AVC формате || Свежие AVC рипы

_________________
Показать сообщения:    

Текущее время: Сегодня 20:14

Часовой пояс: GMT



Вы не можете начинать темы
Вы не можете отвечать на сообщения
Вы не можете редактировать свои сообщения
Вы не можете удалять свои сообщения
Вы не можете голосовать в опросах
Вы не можете прикреплять файлы к сообщениям
Вы не можете скачивать файлы