Важное объявление!
У Нас Все раздачи мультитрекерные, при нуле пиров в релизах, можете смело вставать на закачку!
 
Автор Сообщение

HUNTER

Стаж:
4 года 4 месяца
Сообщений:
56829

Репутация: 101

[+] [-]
Вне форума [Профиль] [ЛС]

Салемские вампиры / Salem's Lot
Страна: США
Студия: Warner Bros. Television
Жанр: ужасы, фэнтези
Год выпуска: 1979
Продолжительность: 03:03:03
Перевод: Профессиональный (многоголосый закадровый) Варус видео
Перевод 2: Авторский (одноголосый закадровый) Иванов
Cубтитры: английские
Оригинальная аудиодорожка: английский
Режиссер: Тоуб Хупер / Tobe Hooper
В ролях: Дэвид Соул, Джеймс Мейсон, Лэнс Кервин, Бонни Беделиа, Лью Эйрз, Джули Кобб, Элиша Кук мл., Джордж Дзундза, Эд Флэндерс, Кларисса Кайе-Мейсон
Описание: Бен Мейрс, успешный романист, возвращается домой в Салемс лот после многих лет отсутствия. Мейрс видит зловещий дом Марстенов, где у него был неприятный эпизод, когда он был ребенком. Дом теперь был куплен антикварами, Страйкером и его загадочным партнером Барлоу.
Когда местные жители начинают исчезать, затем возвращаясь, превратившись в вампиров, Мейрс начинает подозревать, что Барлоу и Страйкер представляют собой совсем не то, чем они кажутся…
[img]https://rating.kinopoisk.ru/95341.gif[/img]
Сэмпл: http://sendfile.su/1269967
Тип релиза: BDRemux 1080p
Контейнер: MKV
Видео: 1920x1080 (16:9), 23.976 fps, AVC, ~29.5 Mbps, 0.594 bits/pixel
Аудио: Russian, 48.0 KHz, AC3, 2 ch, 192 Kbps - MVO Варус видео
Аудио 2: Russian, 48.0 KHz, AC3, 2 ch, 192 Kbps - AVO Иванов
Аудио 3: DTS-HD Master Audio English 1817 kbps 2.0 / 48 kHz / 1817 kbps / 24-bit (DTS Core: 2.0 / 48 kHz / 1509 kbps / 24-bit)
Формат субтитров: softsub (SRT)

MediaInfo

General
Unique ID : 246111769063319976165942117006759438170 (0xB927670EDC824DD596904111B134275A)
Complete name : D:\Salem's Lot 1979 1080p BDRemux.mkv
Format : Matroska
Format version : Version 4 / Version 2
File size : 41.0 GiB
Duration : 3h 3mn
Overall bit rate mode : Variable
Overall bit rate : 32.1 Mbps
Encoded date : UTC 2016-09-29 19:39:28
Writing application : mkvmerge v7.0.0 ('Where We Going') 64bit built on Jun 9 2014 15:16:27
Writing library : libebml v1.3.0 + libmatroska v1.4.1
DURATION : 03:02:58.175000000
NUMBER_OF_FRAMES : 1938
NUMBER_OF_BYTES : 54408
_STATISTICS_WRITING_APP : mkvmerge v7.0.0 ('Where We Going') 64bit built on Jun 9 2014 15:16:27
_STATISTICS_WRITING_DATE_UTC : 2016-09-29 19:39:28
_STATISTICS_TAGS : BPS DURATION NUMBER_OF_FRAMES NUMBER_OF_BYTES
Video
ID : 1
Format : AVC
Format/Info : Advanced Video Codec
Format profile : High@L4.1
Format settings, CABAC : Yes
Format settings, ReFrames : 2 frames
Format settings, GOP : M=1, N=10
Codec ID : V_MPEG4/ISO/AVC
Duration : 3h 3mn
Bit rate mode : Variable
Width : 1 920 pixels
Height : 1 080 pixels
Display aspect ratio : 16:9
Frame rate mode : Constant
Frame rate : 23.976 fps
Color space : YUV
Chroma subsampling : 4:2:0
Bit depth : 8 bits
Scan type : Progressive
Default : Yes
Forced : No
Audio #1
ID : 2
Format : AC-3
Format/Info : Audio Coding 3
Mode extension : CM (complete main)
Format settings, Endianness : Big
Codec ID : A_AC3
Duration : 3h 3mn
Bit rate mode : Constant
Bit rate : 192 Kbps
Channel(s) : 2 channels
Channel positions : Front: L R
Sampling rate : 48.0 KHz
Compression mode : Lossy
Stream size : 251 MiB (1%)
Title : MVO Варус видео
Language : Russian
Default : Yes
Forced : No
Audio #2
ID : 3
Format : AC-3
Format/Info : Audio Coding 3
Mode extension : CM (complete main)
Format settings, Endianness : Big
Codec ID : A_AC3
Duration : 3h 3mn
Bit rate mode : Constant
Bit rate : 192 Kbps
Channel(s) : 2 channels
Channel positions : Front: L R
Sampling rate : 48.0 KHz
Compression mode : Lossy
Stream size : 251 MiB (1%)
Title : AVO Иванов
Language : Russian
Default : No
Forced : No
Audio #3
ID : 4
Format : DTS
Format/Info : Digital Theater Systems
Format profile : MA / Core
Mode : 16
Format settings, Endianness : Big
Codec ID : A_DTS
Duration : 3h 3mn
Bit rate mode : Variable
Bit rate : Unknown / 1 509 Kbps
Channel(s) : 2 channels
Channel positions : Front: L R
Sampling rate : 48.0 KHz
Bit depth : 24 bits
Compression mode : Lossless / Lossy
Language : English
Default : No
Forced : No
Text
ID : 5
Format : UTF-8
Codec ID : S_TEXT/UTF8
Codec ID/Info : UTF-8 Plain Text
Title : SDH
Language : English
Default : No
Forced : No

Скриншоты


_________________
Показать сообщения:    

Текущее время: Сегодня 13:09

Часовой пояс: GMT



Вы не можете начинать темы
Вы не можете отвечать на сообщения
Вы не можете редактировать свои сообщения
Вы не можете удалять свои сообщения
Вы не можете голосовать в опросах
Вы не можете прикреплять файлы к сообщениям
Вы не можете скачивать файлы