Важное объявление!
У Нас Все раздачи мультитрекерные, при нуле пиров в релизах, можете смело вставать на закачку!
 
Автор Сообщение

HUNTER

Стаж:
4 года 4 месяца
Сообщений:
56734

Репутация: 101

[+] [-]
Вне форума [Профиль] [ЛС]

Ловец карт Сакура | Cardcaptor Sakura | カードキャプターさくら-
Страна: Япония
Год выпуска: 1998 г.
Жанр: приключения, комедия, романтика, махо-сёдзё
Тип: TV
Продолжительность: 70 эп. по ~25 мин.
Режиссер: Асака Морио
Студия: MADHouse-Описание: Нелегко быть дочерью одинокого профессора археологии – это на себе испытала 10-летняя Сакура Киномото, обнаружив в отцовском кабинете таинственную Книгу Карт, созданную величайшим магом Клоу Ридом. По неопытности Сакуры 52 волшебных карты вырвались и разлетелись по свету – ищи, как хочешь. Хорошо хоть вместе с книгой остался ее хранитель – симпатяга Кэро-тян, позорно проспавший, кстати, свои обязанности. Уяснив обстановку, Кэро быстро объяснил Сакуре, что она теперь – Собирательница карт, а иначе, как водится, жди больших неприятностей.
Вот так все и началось. Пришлось Сакуре при помощи верного Кэро и очень креативной подруги Томоё «впрягаться в работу», постепенно открывая для себя тайны жизни и волшебства. А за три сезона тайн, приключений, новых встреч и интересных событий встретится очень много!
© Hollow, World Art-Качество: BDRip [Yurasyk]
Формат видео: MKV
Видео: x264 (AVC High@L4.1), 8bits, 960x720, 2400-5900 Kbps, 23.976 fps
Аудио: Jap, AC3 , 48000Hz, 16bits, 640 Kbps, 6ch
Аудио2 (Int): Rus, AC3 , 48000Hz, 16bits, 192 Kbps, 2ch, женская одноголосная [Persona99]
Аудио3 (Int): Rus, AC3 , 48000Hz, 16bits, 128 Kbps, 2ch, многолосая Новый канал
Субтитры: Rus, SRT, внешними файлами, Бегемот [Surgut Anime Land Otaku], (спешал - Slink [Timber Maniacs])-

Подробные тех. данные

General
Unique ID : 203205377210165213323616320758724028389 (0x98DFEE9CFD1582D4B334648EB6BDE7E5)
Complete name : F:\Releases\Cardcaptor Sakura\Cardcaptor Sakura - 01 [BDRip 960x720 x264 AC3].mkv
Format : Matroska
Format version : Version 2
File size : 880 MiB
Duration : 25mn 0s
Overall bit rate : 4 922 Kbps
Encoded date : UTC 2014-01-15 16:34:32
Writing application : mkvmerge v5.8.0 ('No Sleep / Pillow') built on Sep 2 2012 15:37:04
Writing library : libebml v1.2.3 + libmatroska v1.3.0
Video
ID : 1
Format : AVC
Format/Info : Advanced Video Codec
Format profile : High@L4.1
Format settings, CABAC : Yes
Format settings, ReFrames : 12 frames
Codec ID : V_MPEG4/ISO/AVC
Bit rate : 3 864 Kbps
Width : 960 pixels
Height : 720 pixels
Display aspect ratio : 4:3
Frame rate mode : Variable
Original frame rate : 23.976 fps
Color space : YUV
Chroma subsampling : 4:2:0
Bit depth : 8 bits
Scan type : Progressive
Writing library : x264 core 128 r2216+698 b3c1019
Encoding settings : cabac=1 / ref=12 / deblock=1:0:0 / analyse=0x3:0x113 / me=umh / subme=11 / psy=1 / fade_compensate=0.00 / psy_rd=1.00:0.10 / mixed_ref=1 / me_range=32 / chroma_me=1 / trellis=2 / 8x8dct=1 / cqm=0 / deadzone=21,11 / fast_pskip=0 / chroma_qp_offset=-3 / threads=12 / lookahead_threads=2 / sliced_threads=0 / nr=0 / decimate=1 / interlaced=0 / bluray_compat=0 / constrained_intra=0 / fgo=0 / bframes=16 / b_pyramid=2 / b_adapt=2 / b_bias=0 / direct=3 / weightb=1 / open_gop=0 / weightp=2 / keyint=240 / keyint_min=24 / scenecut=40 / intra_refresh=0 / rc_lookahead=60 / rc=crf / mbtree=0 / crf=17.0000 / qcomp=0.60 / qpmin=0 / qpmax=69 / qpstep=4 / vbv_maxrate=62500 / vbv_bufsize=78125 / crf_max=0.0 / nal_hrd=none / ip_ratio=1.40 / pb_ratio=1.30 / aq=3:0.70
Default : Yes
Forced : No
Color primaries : BT.709
Transfer characteristics : BT.709
Matrix coefficients : BT.709
Audio #1
ID : 2
Format : AC-3
Format/Info : Audio Coding 3
Mode extension : CM (complete main)
Format settings, Endianness : Big
Codec ID : A_AC3
Duration : 25mn 0s
Bit rate mode : Constant
Bit rate : 128 Kbps
Channel(s) : 2 channels
Channel positions : Front: L R
Sampling rate : 48.0 KHz
Bit depth : 16 bits
Compression mode : Lossy
Stream size : 22.9 MiB (3%)
Title : Novyi kanal
Language : Russian
Default : Yes
Forced : No
Audio #2
ID : 3
Format : AC-3
Format/Info : Audio Coding 3
Mode extension : CM (complete main)
Format settings, Endianness : Big
Codec ID : A_AC3
Duration : 25mn 0s
Bit rate mode : Constant
Bit rate : 192 Kbps
Channel(s) : 2 channels
Channel positions : Front: L R
Sampling rate : 48.0 KHz
Bit depth : 16 bits
Compression mode : Lossy
Stream size : 34.3 MiB (4%)
Title : Persona99
Language : Russian
Default : No
Forced : No
Audio #3
ID : 4
Format : AC-3
Format/Info : Audio Coding 3
Mode extension : CM (complete main)
Format settings, Endianness : Big
Codec ID : A_AC3
Duration : 25mn 0s
Bit rate mode : Constant
Bit rate : 640 Kbps
Channel(s) : 6 channels
Channel positions : Front: L C R, Side: L R, LFE
Sampling rate : 48.0 KHz
Bit depth : 16 bits
Compression mode : Lossy
Stream size : 114 MiB (13%)
Language : Japanese
Default : No
Forced : No
Menu
00:00:00.000 : ja:Opening
00:01:20.038 : ja:A-part
00:09:58.306 : ja:Eyecatch
00:10:04.270 : ja:B-part
00:22:15.000 : ja:Ending
00:23:25.029 : ja:Kero-chan show
00:24:31.011 : ja:Preview

Список эпизодов

01. Sakura and the Mysterious Magic Book
02. Sakura's Wonderful Friend
03. Sakura's Heart-throbbing First Date
04. Sakura's Exhausting Sunday
05. Sakura and the Panda and the Cute Store
06. Sakura and Her Mother's Memory
07. Sakura's First Challenge as a Thief!?
08. Sakura's Rival Appears!
09. Sakura and the Mysterious Broach
10. Sakura and the Flowery Athletics Meet
11. Sakura, Tomoyo and the Big House
12. Sakura's Endless Day
13. Sakura and the Elephant's Strength Contest
14. Sakura, Touya and Cinderella
15. Sakura and Kero's Big Fight
16. Sakura and the Rainbow of Memories
17. Sakura's Scary Courage Test
18. Sakura, Yukito and the Summer Festival
19. Sakura and the Summer Vacation Homework
20. Sakura and the Fighting Exchange Student
21. Sakura's Long Marathon
22. Sakura and Her Kind Father
23. Sakura, Tomoyo and the Wonderful Song
24. Sakura's Mini Great Adventure
25. Sakura and Another Sakura
26. Sakura and the Wonderful Teacher
27. Sakura and the Shrine of Memories
28. Sakura and the Incantation Cards
29. Sakura's Sweet Cooking
30. Sakura and the Injured Card
31. Sakura and the Nameless Book
32. Sakura, Kero, Shaoran and...
33. Sakura's Cold Ice Skating
34. Sakura and Yukito and the Daytime Moon
35. Sakura's Wonderful Christmas
36. Sakura and the Snowy New School Year
37. Sakura and Tomoyo's Vanished Voice
38. Sakura's Merry Strawberry Hunt
39. Sakura's Dizzy Fever Day
40. Sakura and the Sakura in the Dream
41. Sakura and Shaoran and a Sea of Sand
42. Sakura's Pitch-Dark Literary Fest
43. Sakura's Goodbye to Meiling
44. Sakura and Kero and the Mysterious Teacher
45. Sakura and the Last Clow Card
46. Sakura and the Last Judgement
47. Sakura and the Mysterious Transfer Student
48. Sakura and the Awakened Key of Star
49. Sakura and the Dangerous Piano
50. Sakura and Shaoran and the Invisible Threads
51. Sakura and the Big Stuffed Doll
52. Sakura's Sheep Warning!?
53. Sakura and the Panic Bicycle
54. Sakura and the Calendar of Memories
55. Sakura and Sakura in Wonderland
56. Sakura and Kero and a Candy Date??
57. Sakura and Shaoran and the Elevator
58. Sakura and the Big Pinch
59. Sakura and Tomoyo and the Ball Trap
60. Sakura and her Precious Friend
61. Sakura and Card and Present
62. Sakura and the Mysterious Fortune
63. Sakura and the Pool and the Big Wave
64. Sakura and the Snow-blowing Ski School
65. Sakura and Yukito and His Fading Power
66. Sakura's Most Favorite Person
67. Sakura and Shaoran and the Tsukimine Shrine
68. Sakura and the Past and Clow Reed
69. Sakura and the Appearance of Clow Reed
70. Sakura and her True Feelings
Special:
Memorial Video 1 (Tomoyo Video Diary 1)

Скриншоты

Отличия

От http://rutracker.org/forum/viewtopic.php?t=4035955, http://rutracker.org/forum/viewtopic.php?t=3640494 - 720р vs. 1080p
От http://rutracker.org/forum/viewtopic.php?t=3033974 - 720p vs. 960p
От http://rutracker.org/forum/viewtopic.php?t=3764182 - наличие всех серий.
От http://rutracker.org/forum/viewtopic.php?t=3595081 - лучшее качество, универсальность, отсутствие линковки.
Моя раздача --------------- oleg_aka_djmeg


TV [BDRip 1080p]

_________________
Показать сообщения:    

Текущее время: Сегодня 12:23

Часовой пояс: GMT



Вы не можете начинать темы
Вы не можете отвечать на сообщения
Вы не можете редактировать свои сообщения
Вы не можете удалять свои сообщения
Вы не можете голосовать в опросах
Вы не можете прикреплять файлы к сообщениям
Вы не можете скачивать файлы