Важное объявление!
У Нас Все раздачи мультитрекерные, при нуле пиров в релизах, можете смело вставать на закачку!
 
Автор Сообщение

HUNTER

Стаж:
4 года 4 месяца
Сообщений:
56733

Репутация: 101

[+] [-]
Вне форума [Профиль] [ЛС]

Савва. Сердце воина
Страна: Россия
Жанр: мультфильм, приключения, фэнтези
Продолжительность: 01:27:11
Год выпуска: 2015
Русские субтитры: нет
Режиссёр: Максим Фадеев
Роли озвучивали: Константин Хабенский, Фёдор Бондарчук, Армен Джигарханян, Григорий Лепс, Сергей Шнуров, Михаил Галустян, Глюкоза, Сергей Гармаш, Лолита Милявская, Николай Басков
Описание: История о мальчике Савве десяти лет, который живёт в маленькой лесной деревне. Когда-то деревню от врагов защищали благородные белые волки. Но однажды волки исчезли и на деревню напала банда свирепых Гиен. Савве удаётся сбежать в лес, где он знакомится с Ангой - последним белым волком.
Семпл: http://multi-up.com/1079277
Качество: WEB-DLRip
Формат: AVI
Видео: 720x304 (2.37:1), 25 fps, XviD build 73 ~2198 kbps avg, 0.40 bit/pixel
Аудио: 48 kHz, AC3 Dolby Digital, 2/0 (L,R) ch, ~192 kbps
Субтитры: отсутствуют

Подробные технические данные

Формат : AVIФормат/Информация : Audio Video InterleaveРазмер файла : 1,46 ГбайтПродолжительность : 1 ч. 27 м.Общий поток : 2400 Кбит/секПрограмма кодирования : VirtualDubMod 1.5.10.3 | www.virtualdub-fr.org || (build 2550/release)Библиотека кодирования : VirtualDubMod build 2550/release
ВидеоИдентификатор : 0Формат : MPEG-4 VisualПрофиль формата : Advanced Simple@L5Параметр BVOP формата : 1Параметр QPel формата : НетПараметр GMC формата : Без точки переходаПараметр матрицы формата : ВыборочнаяИдентификатор кодека : XVIDИдентификатор кодека/Подсказка : XviDПродолжительность : 1 ч. 27 м.Битрейт : 2199 Кбит/секШирина : 720 пикселейВысота : 304 пикселяСоотношение сторон : 2,35:1Частота кадров : 25,000 кадров/секЦветовое пространство : YUVСубдискретизация насыщенности : 4:2:0Битовая глубина : 8 битТип развёртки : ПрогрессивнаяМетод сжатия : С потерямиБит/(Пиксели*Кадры) : 0.402Размер потока : 1,34 Гбайт (92%)Библиотека кодирования : XviD 73
АудиоИдентификатор : 1Формат : AC-3Формат/Информация : Audio Coding 3Расширение режима : CM (complete main)Параметр Endianness формата : BigИдентификатор кодека : 2000Продолжительность : 1 ч. 27 м.Вид битрейта : ПостоянныйБитрейт : 192 Кбит/секКаналы : 2 каналаРасположение каналов : Front: L RЧастота : 48,0 КГцБитовая глубина : 16 битМетод сжатия : С потерямиРазмер потока : 120 Мбайт (8%)Выравнивание : Разделение по промежуткамПродолжительность промежутка : 40 мс. (1,00 видеокадр)Время предзагрузки промежутка : 500 мс.

Скриншоты


_________________
Показать сообщения:    

Текущее время: Сегодня 01:13

Часовой пояс: GMT



Вы не можете начинать темы
Вы не можете отвечать на сообщения
Вы не можете редактировать свои сообщения
Вы не можете удалять свои сообщения
Вы не можете голосовать в опросах
Вы не можете прикреплять файлы к сообщениям
Вы не можете скачивать файлы