Важное объявление!
У Нас Все раздачи мультитрекерные, при нуле пиров в релизах, можете смело вставать на закачку!
 
Автор Сообщение

HUNTER

Стаж:
4 года 4 месяца
Сообщений:
56783

Репутация: 101

[+] [-]
Вне форума [Профиль] [ЛС]

Саботаж / Sabotage
Страна: США
Жанр: боевик, триллер, драма, криминал
Год выпуска: 2014
Продолжительность: 01:44:34
Перевод: Профессиональный (дублированный) [лицензия]
Cубтитры: нет
Оригинальная аудиодорожка: нет
Режиссер: Дэвид Эйр / David Ayer
В ролях: Арнольд Шварценеггер, Сэм Уортингтон, Оливия Уильямс, Терренс Ховард, Джо Манганьелло, Джош Холлоуэй, Мирей Инос, Мартин Донован, Макс Мартини, Кевин Вэнс
Описание: История начинается с операции элитного подразделения из управления по борьбе с наркотиками, нагрянувшего на явочную квартиру наркокартеля. Команда решает скрыть от начальства, что в результате налёта они обогатились на миллионы долларов, но вскоре хранить тайну становится всё сложнее: кто-то по одному убирает всех участвовавших в операции.
Бонусы: нет
Меню: русское, статичное, озвученное
Тип релиза: DVD5 (Сжатый)
Контейнер: DVD-Video
Видео: PAL 16:9 (720x576) 5 681 Kbps
Аудио: Russian (Dolby AC3, 6 ch) 384 Kbps

Доп. информация

Обработано в DVDRemake Pro.+Photoshop+Muxman
Видео сжималось 12%.
Сжималось связкой DVD Rebuilder + CCE/Procoder в 5 проходов.
Удалёно: Russian (DTS, 5 ch), заставки и предупреждение.
Лишние кнопки затерты и закрыты.

Лог кодирования

-----------------
[12:12:22] Phase I, PREPARATION started.
- DVD-RB v1.28.2
- AVISYNTH 2.5.8.0
- CCE 1.0.1.9 encoder selected.
- Source: SABOTAJ.2014.DVD5
- VTS_02: 2 502 945 sectors.
-- Scanning and writing .D2V & .AVS files
-- Processed 156 850 frames.
-- Building .AVS and .ECL files
- Reduction Level for DVD-5: 88,3%
- Overall Bitrate : 5 338Kbs
- Space for Video : 4 088 554KB
- HIGH/LOW/TYPICAL Bitrates: 6 008/4 449/5 338 Kbs
[12:14:15] Phase I, PREPARATION completed in 2 minutes.
- WARNING: Viewer/Editor settings are over target.
[12:15:39] Phase II ENCODING started
- Creating M2V for VTS_02 segment 0
- Creating M2V for VTS_02 segment 1
- Creating M2V for VTS_02 segment 2
- Creating M2V for VTS_02 segment 3
- Creating M2V for VTS_02 segment 4
- Creating M2V for VTS_02 segment 5
- Creating M2V for VTS_02 segment 6
- Creating M2V for VTS_02 segment 7
- Creating M2V for VTS_02 segment 8
- Creating M2V for VTS_02 segment 9
- Creating M2V for VTS_02 segment 10
- Creating M2V for VTS_02 segment 11
[13:12:12] Phase II ENCODING completed in 57 minutes.
[21:40:45] Phase III, REBUILD started.
- Copying IFO, BUP, and unaltered files...
- Processing VTS_02
- Reading/processing TMAP table...
- Rebuilding seg 0 VOBID 1 CELLID 1
- Rebuilding seg 1 VOBID 1 CELLID 2
- Rebuilding seg 2 VOBID 1 CELLID 3
- Rebuilding seg 3 VOBID 1 CELLID 4
- Rebuilding seg 4 VOBID 1 CELLID 5
- Rebuilding seg 5 VOBID 1 CELLID 6
- Rebuilding seg 6 VOBID 1 CELLID 7
- Rebuilding seg 7 VOBID 1 CELLID 8
- Rebuilding seg 8 VOBID 1 CELLID 9
- Rebuilding seg 9 VOBID 1 CELLID 10
- Rebuilding seg 10 VOBID 1 CELLID 11
- Rebuilding seg 11 VOBID 1 CELLID 12
- Updating NAVPACKS for VOBID_01
- Updated VTS_C_ADT.
- Updated VTS_VOBU_ADMAP.
- Updated IFO: VTS_02_0.IFO
- Updating TMAP table...
- Correcting VTS Sectors...
[21:51:10] Phase III, REBUILD completed in 11 minutes.
Done.

MediaInfo

General
Complete name : D:\_Video\Sabotaj.2014.DVD5\VIDEO_TS\VTS_02_1.VOB
Format : MPEG-PS
File size : 1 024 MiB
Duration : 22mn 53s
Overall bit rate : 6 253 Kbps
Video
ID : 224 (0xE0)
Format : MPEG Video
Format version : Version 2
Format profile : Main@Main
Format settings, BVOP : Yes
Format settings, Matrix : Custom
Duration : 22mn 53s
Bit rate mode : Variable
Bit rate : 5 681 Kbps
Maximum bit rate : 8 769 Kbps
Width : 720 pixels
Height : 576 pixels
Display aspect ratio : 16:9
Frame rate : 25.000 fps
Standard : PAL
Color space : YUV
Chroma subsampling : 4:2:0
Bit depth : 8 bits
Scan type : Progressive
Scan order : Bottom Field First
Compression mode : Lossy
Bits/(Pixel*Frame) : 0.548
Stream size : 930 MiB (91%)
Audio
ID : 189 (0xBD)-128 (0x80)
Format : AC-3
Format/Info : Audio Coding 3
Mode extension : CM (complete main)
Muxing mode : DVD-Video
Duration : 22mn 53s
Bit rate mode : Constant
Bit rate : 448 Kbps
Channel(s) : 6 channels
Channel positions : Front: L C R, Side: L R, LFE
Sampling rate : 48.0 KHz
Bit depth : 16 bits
Compression mode : Lossy
Stream size : 73.3 MiB (7%)
Menu

DVDInfo

Title: Bob
Size: 4.36 Gb ( 4 574 704 KBytes ) - DVD-5
Enabled regions: 1, 2, 3, 4, 5, 6, 7, 8
VTS_01 :
Play Length:
Video: PAL 4:3 (720x576) VBR
Audio:
Russian (Dolby AC3, 6 ch)
English (Dolby AC3, 6 ch)
English (Dolby AC3, 6 ch)
VTS_02 :
Play Length: 01:44:34
Video: PAL 16:9 (720x576) VBR, Auto Pan&Scan, Auto Letterboxed
Audio:
Russian (Dolby AC3, 6 ch)
Russian (DTS, 5 ch)

Cкриншот финального проекта

Скриншоты меню

Скриншоты


Раздача от группы:

_________________
Показать сообщения:    

Текущее время: Сегодня 20:57

Часовой пояс: GMT



Вы не можете начинать темы
Вы не можете отвечать на сообщения
Вы не можете редактировать свои сообщения
Вы не можете удалять свои сообщения
Вы не можете голосовать в опросах
Вы не можете прикреплять файлы к сообщениям
Вы не можете скачивать файлы