Важное объявление!
У Нас Все раздачи мультитрекерные, при нуле пиров в релизах, можете смело вставать на закачку!
 
Автор Сообщение

HUNTER

Стаж:
4 года 4 месяца
Сообщений:
56822

Репутация: 101

[+] [-]
Вне форума [Профиль] [ЛС]

С чистого листа (Иван Криворучко) [2013, Россия, мелодрама, HDTVRip 720p]
С чистого листа
Выпущено: Россия, Медиапрофсоюз
Жанр: мелодрама
Год выпуска: 2013
Продолжительность: 01:38:25
Субтитры: нет
Режиссер: Иван Криворучко
В ролях: Светлана Смирнова-Марцинкевич, Тимофей Каратаев, Марта Голубева, Инна Коляда, Тамара Миронова, Елена Шабад, Андрей Кривецкий, Андрей Карако, Юлия Полубинская, Валентин Соловьев, Оксана Лесная
Описание: Аня Синицина живёт в небольшом городке, работает продавцом в универмаге и не мечтает о большем. Когда-то она любила одарённого литературным талантом одноклассника Антона Кремнёва, но он вздыхал только по первой красавице школы Лизе Фёдоровой, а после выпускных экзаменов вовсе исчез из виду. Жизнь Ани резко меняется после неожиданной встречи с первой любовью. Оказывается, Антон не стал писателем, а работает простым охранником и главное – он позвал Аню на свидание! Постепенно между молодыми людьми начинают развиваться отношения, пара собирается пожениться, но тут в городе появляется красотка Лиза… Устоит ли Антон перед соблазном? И как теперь сложится жизнь этих троих.

Автор рипа / записи: fanatus
Исходник: Запись с телеканала РОССИЯ HD
Качество: HDTVRip 720p
Формат: MKV
Видео кодек: H.264
Аудио кодек: AC3
Видео: MPEG-4 AVC, 6126 kbps , 1280x720 (16:9), 25.000 fps, 0.266 bit/pixel
Аудио: AC3, 2 ch, 48 kHz, 192 kbps

MediaInfo

General
Unique ID : 244526377361854733633099746483484346151 (0xB7F61136565FCC45B8F02F0BC811C727)
Complete name : E:\S_chistogo_lista.2013.x264.HDTVRip.720p.fanatus.mkv
Format : Matroska
Format version : Version 2
File size : 4.34 GiB
Duration : 1h 38mn
Overall bit rate : 6 317 Kbps
Movie name : S chistogo lista (2013) - fanatus
Encoded date : UTC 2014-07-04 20:05:38
Writing application : mkvmerge v3.4.0 ('Rapunzel') сборка от May 15 2010 09:38:20
Writing library : libebml v0.8.0 + libmatroska v0.9.0
Video
ID : 1
Format : AVC
Format/Info : Advanced Video Codec
Format profile : High@L4.1
Format settings, CABAC : Yes
Format settings, ReFrames : 9 frames
Codec ID : V_MPEG4/ISO/AVC
Duration : 1h 38mn
Bit rate : 6 126 Kbps
Width : 1 280 pixels
Height : 720 pixels
Display aspect ratio : 16:9
Frame rate : 25.000 fps
Color space : YUV
Chroma subsampling : 4:2:0
Bit depth : 8 bits
Scan type : Progressive
Bits/(Pixel*Frame) : 0.266
Stream size : 4.12 GiB (95%)
Title : S chistogo lista (2013) HDTVRip_720p
Writing library : x264 core 142 r2431 ac76440
Encoding settings : cabac=1 / ref=9 / deblock=1:-3:-3 / analyse=0x3:0x113 / me=umh / subme=11 / psy=1 / psy_rd=1.00:0.15 / mixed_ref=1 / me_range=48 / chroma_me=1 / trellis=2 / 8x8dct=1 / cqm=0 / deadzone=21,11 / fast_pskip=0 / chroma_qp_offset=-3 / threads=16 / lookahead_threads=4 / sliced_threads=0 / nr=0 / decimate=0 / interlaced=0 / bluray_compat=0 / constrained_intra=0 / bframes=10 / b_pyramid=2 / b_adapt=2 / b_bias=0 / direct=3 / weightb=1 / open_gop=0 / weightp=2 / keyint=250 / keyint_min=25 / scenecut=40 / intra_refresh=0 / rc=2pass / mbtree=0 / bitrate=6126 / ratetol=1.0 / qcomp=0.65 / qpmin=0 / qpmax=69 / qpstep=4 / cplxblur=20.0 / qblur=0.5 / ip_ratio=1.40 / pb_ratio=1.30 / aq=1:0.80
Language : Russian
Default : Yes
Forced : No
Audio
ID : 2
Format : AC-3
Format/Info : Audio Coding 3
Mode extension : CM (complete main)
Format settings, Endianness : Big
Codec ID : A_AC3
Duration : 1h 38mn
Bit rate mode : Constant
Bit rate : 192 Kbps
Channel(s) : 2 channels
Channel positions : Front: L R
Sampling rate : 48.0 KHz
Bit depth : 16 bits
Compression mode : Lossy
Stream size : 135 MiB (3%)
Language : Russian
Default : Yes
Forced : No

Скриншот c названием фильма


_________________
Показать сообщения:    

Текущее время: Сегодня 22:16

Часовой пояс: GMT



Вы не можете начинать темы
Вы не можете отвечать на сообщения
Вы не можете редактировать свои сообщения
Вы не можете удалять свои сообщения
Вы не можете голосовать в опросах
Вы не можете прикреплять файлы к сообщениям
Вы не можете скачивать файлы