Важное объявление!
У Нас Все раздачи мультитрекерные, при нуле пиров в релизах, можете смело вставать на закачку!
 
Автор Сообщение

HUNTER

Стаж:
4 года 4 месяца
Сообщений:
56790

Репутация: 101

[+] [-]
Вне форума [Профиль] [ЛС]

С Земли к Миранде / Horizon. From Earth To Miranda
Дата/Год выпуска: 1990
Страна: Великобритания
Жанр: Документальный, космос
Продолжительность: 00:47:21
Перевод: Субтитры
Русские субтитры: есть
Формат субтитров: hardsub (неотключаемые)
Авторы перевода субтитров: Astra Stellari & Anna Spacedust
Описание: В этом документальном фильме мы увидим как НАСА запустило космические зонды Voyager для изучения планет из внешней части Солнечной системы.
качество: VHSRip
формат: AVI
Видео: XviD 750 Кбит/с 624x504 25fps
Аудио: MP3 2 ch 128 Кбит/с

MediaInfo

GeneralComplete name : C:\Documents and Settings\Администратор\Мои документы\Мои рисунки\Horizon. From Earth To Miranda.aviFormat : AVIFormat/Info : Audio Video InterleaveFile size : 301 MiBDuration : 47mn 21sOverall bit rate : 890 KbpsWriting application : VirtualDubMod 1.5.10.3 (build 2550/release)Writing library : VirtualDubMod build 2550/release
VideoID : 0Format : MPEG-4 VisualFormat profile : Advanced Simple@L5Format settings, BVOP : 1Format settings, QPel : NoFormat settings, GMC : No warppointsFormat settings, Matrix : Default (H.263)Codec ID : XVIDCodec ID/Hint : XviDDuration : 47mn 21sBit rate : 752 KbpsWidth : 624 pixelsHeight : 504 pixelsDisplay aspect ratio : 5:4Frame rate : 25.000 fpsColor space : YUVChroma subsampling : 4:2:0Bit depth : 8 bitsScan type : ProgressiveCompression mode : LossyBits/(Pixel*Frame) : 0.096Stream size : 255 MiB (85%)Writing library : XviD 1.2.1 (UTC 2008-12-04)
AudioID : 1Format : MPEG AudioFormat version : Version 1Format profile : Layer 3Codec ID : 55Codec ID/Hint : MP3Duration : 47mn 21sBit rate mode : ConstantBit rate : 128 KbpsChannel(s) : 2 channelsSampling rate : 44.1 KHzCompression mode : LossyDelay relative to video : 8msStream size : 43.4 MiB (14%)Alignment : Split accross interleavesInterleave, duration : 40 ms (1.00 video frame)Interleave, preload duratio : 500 ms

Скриншоты


_________________
Показать сообщения:    

Текущее время: Сегодня 15:37

Часовой пояс: GMT



Вы не можете начинать темы
Вы не можете отвечать на сообщения
Вы не можете редактировать свои сообщения
Вы не можете удалять свои сообщения
Вы не можете голосовать в опросах
Вы не можете прикреплять файлы к сообщениям
Вы не можете скачивать файлы