Важное объявление!
У Нас Все раздачи мультитрекерные, при нуле пиров в релизах, можете смело вставать на закачку!
 
Автор Сообщение

HUNTER

Стаж:
4 года 4 месяца
Сообщений:
56722

Репутация: 101

[+] [-]
Вне форума [Профиль] [ЛС]

Рыцари Сидонии / Sidonia no Kishi
Страна: Япония
Год выпуска: 2014 г.
Тип: TV
Жанр: Приключения, фантастика
Продолжительность: 12 эп. по 25 мин
русские субтитры: внешним файлом
Перевод: Antravoco
Перевод: chainsaws
Редакция: Eladiel, Kekcelt-русские субтитры: HUNTA & Fratelli
Перевод: Сова
Редакция: Ни за что
Редакция, корректор,и сверщик: Jenia aka Zub
Режиссер: Сидзуно Кобун
Студия:
Описание: Далёкое будущее... Глубокий космос.
Космический корабль «Сидония» летит в бескрайней пустоте вот уже десять веков с момента гибели Солнечной системы. Огромные, почти неуязвимые, инопланетные монстры, разрушившие колыбель человечества, по-прежнему преследуют его остатки. За долгие годы бегства жизнь сильно изменилась. Клонирование, генетические модификации стали обычным делом. Нагатэ Таникадзе родился уже здесь, под толстой сверкающей бронёй обшивки, глубоко в недрах корабля. Его судьба — стать пилотом и защищать последнее пристанище человечества. ©chainsaws
Равка: Zero-Raws
Хардсаб: Отсутствует
Качество: HDTVRip
Формат видео: mp4
Видео: AVC, 8 bits, 1280x720; 23.976 fps; 1732 Kbps, (16:9)
Аудио:
1. JP - AAC, 48.0 KHz, 192 kbps, 2 ch

Список эпизодов

01.

Скриншоты

MediaInfo

Общее
Полное имя : D:\[Zero-Raws]\[Zero-Raws] Sidonia no Kishi\[Zero-Raws] Sidonia no Kishi - 01 (MBS 1280x720 x264 AAC).mp4
Формат : MPEG-4
Профиль формата : Base Media
Идентификатор кодека : isom
Размер файла : 336 Мбайт
Продолжительность : 24 м.
Режим общего битрейта : Переменный
Общий поток : 1924 Кбит/сек
Дата кодирования : UTC 2014-04-12 04:23:30
Дата пометки : UTC 2014-04-12 04:23:30
Видео
Идентификатор : 1
Формат : AVC
Формат/Информация : Advanced Video Codec
Профиль формата : High@L3.1
Параметр CABAC формата : Да
Параметр ReFrames формата : 4 кадра
Идентификатор кодека : avc1
Идентификатор кодека/Информация : Advanced Video Coding
Продолжительность : 24 м.
Битрейт : 1732 Кбит/сек
Максимальный битрейт : 13,1 Мбит/сек
Ширина : 1280 пикселей
Высота : 720 пикселей
Соотношение сторон : 16:9
Режим частоты кадров : Постоянный
Частота кадров : 23,976 кадра/сек
Цветовое пространство : YUV
Субдискретизация насыщенности : 4:2:0
Битовая глубина : 8 бит
Тип развёртки : Прогрессивная
Бит/(Пиксели*Кадры) : 0.078
Размер потока : 303 Мбайт (90%)
Библиотека кодирования : x264 core 133 r2334 a3ac64b
Настройки программы : cabac=1 / ref=3 / deblock=1:0:0 / analyse=0x3:0x113 / me=hex / subme=7 / psy=1 / psy_rd=1.00:0.00 / mixed_ref=1 / me_range=16 / chroma_me=1 / trellis=1 / 8x8dct=1 / cqm=0 / deadzone=21,11 / fast_pskip=1 / chroma_qp_offset=-2 / threads=12 / lookahead_threads=2 / sliced_threads=0 / nr=0 / decimate=1 / interlaced=0 / bluray_compat=0 / constrained_intra=0 / bframes=3 / b_pyramid=2 / b_adapt=1 / b_bias=0 / direct=1 / weightb=1 / open_gop=0 / weightp=2 / keyint=250 / keyint_min=23 / scenecut=40 / intra_refresh=0 / rc_lookahead=40 / rc=crf / mbtree=1 / crf=19.5 / qcomp=0.60 / qpmin=0 / qpmax=69 / qpstep=4 / ip_ratio=1.40 / aq=1:1.00
Дата кодирования : UTC 2014-04-12 04:02:29
Дата пометки : UTC 2014-04-12 04:23:32
Аудио
Идентификатор : 2
Формат : AAC
Формат/Информация : Advanced Audio Codec
Профиль формата : LC
Идентификатор кодека : 40
Продолжительность : 24 м.
Вид битрейта : Переменный
Битрейт : 192 Кбит/сек
Максимальный битрейт : 197 Кбит/сек
Каналы : 2 канала
Расположение каналов : Front: L R
Частота : 48,0 КГц
Метод сжатия : С потерями
Размер потока : 33,0 Мбайт (10%)
Заголовок : aac#trackID=1:lang=Japanese@GPAC0.5.1-DEV-rev4708
Язык : Japanese
Дата кодирования : UTC 2014-04-12 04:23:31
Дата пометки : UTC 2014-04-12 04:23:32

_________________
Показать сообщения:    

Текущее время: Сегодня 13:52

Часовой пояс: GMT



Вы не можете начинать темы
Вы не можете отвечать на сообщения
Вы не можете редактировать свои сообщения
Вы не можете удалять свои сообщения
Вы не можете голосовать в опросах
Вы не можете прикреплять файлы к сообщениям
Вы не можете скачивать файлы