Важное объявление!
У Нас Все раздачи мультитрекерные, при нуле пиров в релизах, можете смело вставать на закачку!
 
Автор Сообщение

HUNTER

Стаж:
4 года 4 месяца
Сообщений:
56765

Репутация: 101

[+] [-]
Вне форума [Профиль] [ЛС]

-
Год выпуска: 2014
Страна: Япония
Жанр: фантастика
Продолжительность: ТВ-сериал, 12 эп. по 24 мин.
Выпуск: c 11.04.2014-Перевод:

  • русские субтитры от chainsaws & Eladiel & Kekcelt & PikoPiko (полные/вспомогательные)-Режиссер: Сидзуно Кобун
    Студия: Polygon Pictures-Описание:
    Рыцари Сидонии, трансцендентное аниме, снятое по трансцендентной манге про трансцендентный космический ковчег под названием Сидония, который куда-то летит сквозь вселенную. Население этого корабля находится, что называется на издыхании, т.к. ведет многовековую войну с монстрами, под приятным русскому слуху названием, Гауна. Каждый раз, когда персонажи произносят "Гауна", вместо страха на лице возникает лёгкая улыбка.
    Зоркому зрителю сразу будет видно, что это аниме похоже на прошлогодний фейл под названием "Гаргантия". Но не спешите отчаиваться! Т.к. слухами земля полоница, что справедливо бывший мэстро Уробучи Гэн "позаимстовал" сюжет у Сидонии для своей Гаргантии. Где всячески извратил на свой лад - предательство возвёл в главную человеческую ценность, а отвагу и честь опустил ниже плинтуса. В Сидонии же всё как надо - люди храбро идут в бой, ради выживания человечества. В этом плане Сидония находит родственника в лице "Вторжения Гигантов".
    Хочется отметить графический стиль сочетающий в себе невероятной красоты 2D пейзажи, качественное 3D и как мне кажется... ротоскопию. Хотя могу и ошибаться. Отдельно отмечу космос - это не разноцветное каля-маля, как нынче принято, а ледяной и черный космос, со звёздами, до которых ни в жизнь не долетишь. Музыка просто невероятна, особенно скрипка, а ОП - хочется прослушивать раз за разом.
    © Zigrain-Информационные ссылки: AniDB || World Art || MAL-Качество: BDRip
    Энкод: Winter - RG Pantheon
    Тип видео: без хардсаба, без линковки
    Формат: mkv
    Видео: x264 (Hi10p), 1280x720, ~4400 Kbps, 23.976 fps
    Аудио JAP: AC-3, 48000Hz, ~448 Kbps, 5.1ch
    Аудио RUS 1-2: AC-3, 48000Hz, ~192 Kbps, 2ch (внешними файлами)-

    Список озвучек в раздаче
  • двухголосая (жен./муж.) от Eladiel & Absurd
  • многоголосая от Cuba77 & FruKt & Trina_D & Shina
    Список эпизодов
    01. First Battle
    02. Starry Sky
    СкриншотыОтличия от других раздачПодробные тех. данные
    Общее
    Уникальный идентификатор : 209001550577349255218372295556001069599 (0x9D3C3C0618C05A1180FE1B86206E7A1F)
    Полное имя : Z:\Anime\720p\Sidonia no Kishi [BD] [720p]\[Winter] Sidonia no Kishi 01 [BDrip 1280x720 x264 AC-3].mkv
    Формат : Matroska
    Версия формата : Version 2
    Размер файла : 820 Мбайт
    Продолжительность : 24 м.
    Общий поток : 4683 Кбит/сек
    Дата кодирования : UTC 2014-06-03 19:28:30
    Программа кодирования : mkvmerge v2.9.8 ('C'est le bon') built on Aug 13 2009 12:49:06
    Библиотека кодирования : libebml v0.7.7 + libmatroska v0.8.1
    Видео
    Идентификатор : 1
    Формат : AVC
    Формат/Информация : Advanced Video Codec
    Профиль формата : High 10@L4.1
    Параметр CABAC формата : Да
    Параметр ReFrames формата : 9 кадров
    Идентификатор кодека : V_MPEG4/ISO/AVC
    Продолжительность : 24 м.
    Битрейт : 4141 Кбит/сек
    Ширина : 1280 пикселей
    Высота : 720 пикселей
    Соотношение сторон : 16:9
    Режим частоты кадров : Постоянный
    Частота кадров : 23,976 кадра/сек
    Цветовое пространство : YUV
    Субдискретизация насыщенности : 4:2:0
    Битовая глубина : 10 бит
    Тип развёртки : Прогрессивная
    Бит/(Пиксели*Кадры) : 0.187
    Размер потока : 725 Мбайт (88%)
    Библиотека кодирования : x264 core 132 r2309 3b1f1f7
    Настройки программы : cabac=1 / ref=9 / deblock=1:-2:-2 / analyse=0x3:0x133 / me=umh / subme=9 / psy=1 / psy_rd=0.90:0.00 / mixed_ref=1 / me_range=24 / chroma_me=1 / trellis=2 / 8x8dct=1 / cqm=0 / deadzone=21,11 / fast_pskip=1 / chroma_qp_offset=-2 / threads=12 / lookahead_threads=2 / sliced_threads=0 / nr=0 / decimate=0 / interlaced=0 / bluray_compat=0 / constrained_intra=0 / bframes=8 / b_pyramid=2 / b_adapt=2 / b_bias=0 / direct=1 / weightb=1 / open_gop=0 / weightp=2 / keyint=250 / keyint_min=23 / scenecut=40 / intra_refresh=0 / rc=crf / mbtree=0 / crf=15.8 / qcomp=0.70 / qpmin=9 / qpmax=42 / qpstep=4 / ip_ratio=1.40 / pb_ratio=1.30 / aq=1:0.90
    Default : Нет
    Forced : Нет
    Аудио
    Идентификатор : 2
    Формат : AC-3
    Формат/Информация : Audio Coding 3
    Расширение режима : CM (complete main)
    Параметр Endianness формата : Big
    Идентификатор кодека : A_AC3
    Продолжительность : 24 м.
    Вид битрейта : Постоянный
    Битрейт : 448 Кбит/сек
    Каналы : 6 каналов
    Расположение каналов : Front: L C R, Side: L R, LFE
    Частота : 48,0 КГц
    Битовая глубина : 16 бит
    Метод сжатия : С потерями
    Размер потока : 78,5 Мбайт (10%)
    Язык : Japanese
    Default : Да
    Forced : Нет
    - -Информация о релизе
  • Выбор видео, перевода, озвучки, а также типа сборки материала осуществляется релизером и не подлежит обсуждению. Если вы считаете, что раздаваемый материал противоречит правилам раздела "Аниме" rutracker.org, сообщите об этом одному из модераторов раздела.
  • В случае появления нового материала или же лучшего по качеству материала релизер оставляет за собой право обновить раздачу. В этом случае вам необходимо ознакомиться с изменениями (добавлениями) и перекачать торрент.
  • Данный релиз предназначен для просмотра на ПК. Воспроизведение на иных проигрывателях не гарантируется. Для просмотра рекомендуется Media Player Classic с установленным пакетом кодеков K-Lite.
  • Данный релиз содержит 10-битное видео (Hi10p). Для корректного воспроизведения обязательно используйте кодеки, поддерживающие 10-битное видео.
    Обсудить частные случаи проблем с воспроизведением и получить дополнительную информацию можно здесь.

  • Данный релиз предназначен для просмотра с внешними субтитрами и внешними звуковыми дорожками.
  • Для просмотра с внешней звуковой дорожкой нужно:
    перекинуть файлы .mka из папки "RUS Sound [<автор(ы) озвучки>]" в одну папку с видео и переключить звуковую дорожку в плеере при просмотре. Как это сделать в разных плеерах подробно описано здесь.

  • Для просмотра с субтитрами нужно:
    перекинуть файлы .ass из папки "RUS Subtitles [<автор(ы) перевода>]" в одну папку с видео - плеер подгрузит их автоматически при открытии видео.

  • Если у вас возникли проблемы с просмотром, не связанные с описанным выше, сообщите о них автору раздачи посредством сообщения в теме или ЛС Aglenn.

  • _________________
    Показать сообщения:    

    Текущее время: Сегодня 06:22

    Часовой пояс: GMT



    Вы не можете начинать темы
    Вы не можете отвечать на сообщения
    Вы не можете редактировать свои сообщения
    Вы не можете удалять свои сообщения
    Вы не можете голосовать в опросах
    Вы не можете прикреплять файлы к сообщениям
    Вы не можете скачивать файлы