Важное объявление!
У Нас Все раздачи мультитрекерные, при нуле пиров в релизах, можете смело вставать на закачку!
 
Автор Сообщение

HUNTER

Стаж:
4 года 4 месяца
Сообщений:
56790

Репутация: 101

[+] [-]
Вне форума [Профиль] [ЛС]

Рыцари-наездники / Knightriders
Страна: США
Студия: Laurel, United Film
Жанр: драма
Год выпуска: 1981
Продолжительность: 02:26:50
Перевод 1: Профессиональный (двухголосый закадровый) НТВ+
Перевод 2: Авторский (одноголосый закадровый) Алексеев
Cубтитры: Английские
Оригинальная аудиодорожка: Английский
Режиссер: Джордж А. Ромеро / George A. Romero
В ролях: Эд Харрис, Гари Лахти, Том Савини, Эми Ингерсолл, Патриша Тэллман, Кристин Форрест, Уорнер Шук, Брава Блу, Синтия Адлер, Джон Эмплас
Описание: Странствующая группа разыгрывает на пленере поединки и турниры, чтобы подчеркнуть смысл и красоту древних понятий чести, мужества, доблести. Однако жизнь и окружающая действительность постоянно подбрасывают моторизованному «войску короля Артура» всевозможные искушения. Например, предложения о сольных выступлениях в каких-нибудь передвижных театрах или цирках…
Сэмпл: Скачать
Тип релиза: BDRip 1080p
Контейнер: MKV
Видео: V_MPEG4/AVC, NTSC, 1920х1040p, 16:9, 8474 Kbps, 23.976 fps
Аудио 1: Русский AC3 2.0, 48 kHz, 192 kbps - Профессиональный (двухголосый закадровый) НТВ+
Аудио 2: Русский AC3 2.0, 48 kHz, 192 kbps - Авторский (одноголосый закадровый) Алексеев
Аудио 3: Английский AC3 2.0, 48 kHz, 640 kbps
Формат субтитров: softsub (SRT)
Присутствует переключение по главам, как на исходнике

MediaInfo

General
Unique ID : 253790097023024482207244168175938816127 (0xBEEE31DAC785B76F81A864A94365C87F)
Complete name : D:\Knightriders.1981.1080p.BluRay.X264-7SinS [PublicHD]\Knightriders.1981.1080p.BluRay.X264-7SinS [PublicHD]_.mkv
Format : Matroska
Format version : Version 2
File size : 9.78 GiB
Duration : 2h 26mn
Overall bit rate : 9 531 Kbps
Encoded date : UTC 2016-01-10 21:05:23
Writing application : mkvmerge v5.7.0 ('The Whirlwind') built on Jul 8 2012 20:08:51
Writing library : libebml v1.2.3 + libmatroska v1.3.0
Video
ID : 1
Format : AVC
Format/Info : Advanced Video Codec
Format profile : High@L4.1
Format settings, CABAC : Yes
Format settings, ReFrames : 4 frames
Codec ID : V_MPEG4/ISO/AVC
Duration : 2h 26mn
Bit rate : 8 474 Kbps
Width : 1 920 pixels
Height : 1 040 pixels
Display aspect ratio : 1.85:1
Frame rate mode : Constant
Frame rate : 23.976 fps
Color space : YUV
Chroma subsampling : 4:2:0
Bit depth : 8 bits
Scan type : Progressive
Bits/(Pixel*Frame) : 0.177
Stream size : 8.53 GiB (87%)
Writing library : x264 core 130 r2273 b3065e6
Encoding settings : cabac=1 / ref=4 / deblock=1:0:0 / analyse=0x3:0x133 / me=umh / subme=7 / psy=1 / psy_rd=1.00:0.00 / mixed_ref=1 / me_range=16 / chroma_me=1 / trellis=1 / 8x8dct=1 / cqm=0 / deadzone=21,11 / fast_pskip=0 / chroma_qp_offset=-2 / threads=12 / lookahead_threads=2 / sliced_threads=0 / nr=0 / decimate=1 / interlaced=0 / bluray_compat=0 / constrained_intra=0 / bframes=3 / b_pyramid=2 / b_adapt=2 / b_bias=0 / direct=3 / weightb=1 / open_gop=0 / weightp=2 / keyint=250 / keyint_min=23 / scenecut=40 / intra_refresh=0 / rc_lookahead=50 / rc=2pass / mbtree=1 / bitrate=8474 / ratetol=1.0 / qcomp=0.60 / qpmin=0 / qpmax=69 / qpstep=4 / cplxblur=20.0 / qblur=0.5 / ip_ratio=1.40 / aq=1:1.00
Language : English
Default : Yes
Forced : No
Audio #1
ID : 2
Format : AC-3
Format/Info : Audio Coding 3
Mode extension : CM (complete main)
Format settings, Endianness : Big
Codec ID : A_AC3
Duration : 2h 26mn
Bit rate mode : Constant
Bit rate : 192 Kbps
Channel count : 2 channels
Channel positions : Front: L R
Sampling rate : 48.0 KHz
Bit depth : 16 bits
Compression mode : Lossy
Stream size : 202 MiB (2%)
Language : Russian
Default : Yes
Forced : No
Audio #2
ID : 3
Format : AC-3
Format/Info : Audio Coding 3
Mode extension : CM (complete main)
Format settings, Endianness : Big
Codec ID : A_AC3
Duration : 2h 26mn
Bit rate mode : Constant
Bit rate : 192 Kbps
Channel count : 2 channels
Channel positions : Front: L R
Sampling rate : 48.0 KHz
Bit depth : 16 bits
Compression mode : Lossy
Stream size : 202 MiB (2%)
Title : AC3 2ch 192kbps |AVO Алексеев|
Language : Russian
Default : No
Forced : No
Audio #3
ID : 4
Format : AC-3
Format/Info : Audio Coding 3
Mode extension : CM (complete main)
Format settings, Endianness : Big
Codec ID : A_AC3
Duration : 2h 26mn
Bit rate mode : Constant
Bit rate : 640 Kbps
Channel count : 2 channels
Channel positions : Front: L R
Sampling rate : 48.0 KHz
Bit depth : 16 bits
Compression mode : Lossy
Stream size : 672 MiB (7%)
Title : AC3 2ch 640kbps
Language : English
Default : No
Forced : No
Text
ID : 5
Format : UTF-8
Codec ID : S_TEXT/UTF8
Codec ID/Info : UTF-8 Plain Text
Language : English
Default : No
Forced : No
Menu
00:00:00.000 : en:00:00:00.000
00:10:49.315 : en:00:10:49.315
00:24:48.570 : en:00:24:48.570
00:38:21.090 : en:00:38:21.090
00:50:32.446 : en:00:50:32.446
01:03:40.066 : en:01:03:40.066
01:16:52.441 : en:01:16:52.441
01:28:20.086 : en:01:28:20.086
01:43:31.872 : en:01:43:31.872
01:51:06.285 : en:01:51:06.285
02:02:57.161 : en:02:02:57.161
02:15:17.276 : en:02:15:17.276

Скриншоты




_________________
Показать сообщения:    

Текущее время: Сегодня 12:38

Часовой пояс: GMT



Вы не можете начинать темы
Вы не можете отвечать на сообщения
Вы не можете редактировать свои сообщения
Вы не можете удалять свои сообщения
Вы не можете голосовать в опросах
Вы не можете прикреплять файлы к сообщениям
Вы не можете скачивать файлы