Важное объявление!
У Нас Все раздачи мультитрекерные, при нуле пиров в релизах, можете смело вставать на закачку!
 
Автор Сообщение

mihis

[Профиль] [ЛС]

Рука, качающая колыбель / The Hand That Rocks the Cradle«Behind a beautiful face, beneath a dangerous smile, lies a revenge that can't be stopped.»
Год выпуска: 1992
Страна: США, Hollywood Pictures, Interscope Communications, Nomura Babcock & Brown, Rock'n Cradle Productions
Жанр: Триллер, драма
Продолжительность: 01:50:00
Перевод: Профессиональный (многоголосый, закадровый) Видеосервис + 2 Профессиональный (двухголосый, закадровый) НТВ+ + Авторский (одноголосый, закадровый) А.Гаврилов + Оригинал
Субтитры: Нет
Режиссер: Кертис Хэнсон
В ролях: Аннабелла Шиорра, Ребекка Де Морнэй, Мэтт МакКой, Эрни Хадсон, Джулианна Мур, Мадлен Зима, Джон де Ланси, Кевин Скаусен, Митчелл Лоранс, Эрик Меландер, Дженнифер Меландер, Эшли Меландер, Клифф Ленц, Мэри Энн Оуэн, Тодд Джемисон, Лаура Ферри, Ди Ди Ван Зиль
Описание: Муж Пэйтон Фландерс, обвиненный в сексуальных домогательствах к своим пациенткам, кончает жизнь самоубийством. Потрясение с этим связанное приводит к преждевременным родам и ребенок Пэйтон рождается мертвым. Кто-то должен заплатить за это, и Пэйтон устраивается сиделкой в дом женщины, которая первой выдвинула обвинения против ее мужа.

Качество: HDTVRip-AVC
Формат: MKV
Видео кодек: H.264
Аудио кодек: AC3
Видео: AVC, 1024x568 (16:9), 23.976 fps, 2 468 Kbps (0.177 bit/pixel)
Аудио #1: AC3, 48.0 KHz, 2 ch, 192 Kbps, CBR MVO Видеосервис
Аудио #2: AC3, 48.0 KHz, 2 ch, 192 Kbps, CBR DVO НТВ+
Аудио #3: AC3, 48.0 KHz, 2 ch, 192 Kbps, CBR DVO
Аудио #4: AC3, 48.0 KHz, 2 ch, 192 Kbps, CBR AVO А.Гаврилов
Аудио #5: AC3, 48.0 KHz, 2 ch, 192 Kbps, CBR Eng

Награды

Главный приз, премия за женскую роль (Ребекка Де Морней) и награда публики на МКФ в Коньяке в 1992 году.
Сатурн, 1993 год
Номинации (3):
Лучший фильм ужасов
Лучшая актриса (Ребекка Де Морнэй)
Лучшая актриса второго плана (Джулианна Мур)
Премия канала «MTV», 1992 год
Победитель (1):
Лучший злодей (Ребекка Де Морнэй)
Номинации (1):
Лучшая женская роль (Ребекка Де Морнэй)

MediaInfo

Полное имя : Ruka.kachajuschaja.kolibelj.1992.x264.HDTVRip.(AVC).0ptimus.mkv
Формат : Matroska
Версия формата : Version 2
Размер файла : 2,64 Гбайт
Продолжительность : 1 ч. 50 м.
Общий поток : 3431 Кбит/сек
Название фильма : Рука, качающая колыбель / The Hand That Rocks the Cradle [1992] -=HDTVRip (AVC) by 0ptimus=-
Дата кодирования : UTC 2012-11-10 16:01:03
Программа кодирования : mkvmerge v5.8.0 ('No Sleep / Pillow') built on Sep 2 2012 15:37:04
Библиотека кодирования : libebml v1.2.3 + libmatroska v1.3.0
Видео
Идентификатор : 1
Формат : AVC
Формат/Информация : Advanced Video Codec
Профиль формата : High@L4.1
Параметр CABAC формата : Да
Параметр ReFrames формата : 9 кадров
Идентификатор кодека : V_MPEG4/ISO/AVC
Битрейт : 2468 Кбит/сек
Ширина : 1024 пикселя
Высота : 568 пикселей
Соотношение сторон : 16:9
Режим частоты кадров : Переменный
Частота кадров в оригинале : 23,976 кадра/сек
Цветовое пространство : YUV
Субдискретизация насыщенности : 4:2:0
Битовая глубина : 8 бит
Тип развёртки : Прогрессивная
Бит/(Пиксели*Кадры) : 0.177
Заголовок : Rip by 0ptimus
Библиотека кодирования : x264 core 128 r2216 198a7ea
Настройки программы : cabac=1 / ref=9 / deblock=1:-2:-1 / analyse=0x3:0x113 / me=umh / subme=11 / psy=1 / psy_rd=1.00:0.20 / mixed_ref=1 / me_range=32 / chroma_me=1 / trellis=2 / 8x8dct=1 / cqm=0 / deadzone=21,11 / fast_pskip=0 / chroma_qp_offset=-3 / threads=3 / lookahead_threads=1 / sliced_threads=0 / nr=0 / decimate=0 / interlaced=0 / bluray_compat=0 / constrained_intra=0 / bframes=8 / b_pyramid=2 / b_adapt=2 / b_bias=0 / direct=3 / weightb=1 / open_gop=0 / weightp=2 / keyint=240 / keyint_min=23 / scenecut=40 / intra_refresh=0 / rc_lookahead=40 / rc=2pass / mbtree=0 / bitrate=2468 / ratetol=1.0 / qcomp=0.60 / qpmin=0 / qpmax=69 / qpstep=4 / cplxblur=20.0 / qblur=0.5 / vbv_maxrate=50000 / vbv_bufsize=50000 / nal_hrd=none / ip_ratio=1.40 / pb_ratio=1.30 / aq=1:1.00
Язык : English
Default : Да
Forced : Да
Аудио #1
Идентификатор : 2
Формат : AC-3
Формат/Информация : Audio Coding 3
Расширение режима : CM (complete main)
Параметр Endianness формата : Big
Идентификатор кодека : A_AC3
Продолжительность : 1 ч. 50 м.
Вид битрейта : Постоянный
Битрейт : 192 Кбит/сек
Каналы : 2 канала
Расположение каналов : Front: L R
Частота : 48,0 КГц
Битовая глубина : 16 бит
Метод сжатия : С потерями
Размер потока : 151 Мбайт (6%)
Заголовок : Многоголосый [Видеосервис]
Язык : Russian
Default : Да
Forced : Да
Аудио #2
Идентификатор : 3
Формат : AC-3
Формат/Информация : Audio Coding 3
Расширение режима : CM (complete main)
Параметр Endianness формата : Big
Идентификатор кодека : A_AC3
Продолжительность : 1 ч. 50 м.
Вид битрейта : Постоянный
Битрейт : 192 Кбит/сек
Каналы : 2 канала
Расположение каналов : Front: L R
Частота : 48,0 КГц
Битовая глубина : 16 бит
Метод сжатия : С потерями
Размер потока : 151 Мбайт (6%)
Заголовок : Двухголосый [НТВ+]
Язык : Russian
Default : Нет
Forced : Нет
Аудио #3
Идентификатор : 4
Формат : AC-3
Формат/Информация : Audio Coding 3
Расширение режима : CM (complete main)
Параметр Endianness формата : Big
Идентификатор кодека : A_AC3
Продолжительность : 1 ч. 50 м.
Вид битрейта : Постоянный
Битрейт : 192 Кбит/сек
Каналы : 2 канала
Расположение каналов : Front: L R
Частота : 48,0 КГц
Битовая глубина : 16 бит
Метод сжатия : С потерями
Размер потока : 151 Мбайт (6%)
Заголовок : Двухголосый
Язык : Russian
Default : Нет
Forced : Нет
Аудио #4
Идентификатор : 5
Формат : AC-3
Формат/Информация : Audio Coding 3
Расширение режима : CM (complete main)
Параметр Endianness формата : Big
Идентификатор кодека : A_AC3
Продолжительность : 1 ч. 50 м.
Вид битрейта : Постоянный
Битрейт : 192 Кбит/сек
Каналы : 2 канала
Расположение каналов : Front: L R
Частота : 48,0 КГц
Битовая глубина : 16 бит
Метод сжатия : С потерями
Размер потока : 151 Мбайт (6%)
Заголовок : Авторский [Андрей Гаврилов]
Язык : Russian
Default : Нет
Forced : Нет
Аудио #5
Идентификатор : 6
Формат : AC-3
Формат/Информация : Audio Coding 3
Расширение режима : CM (complete main)
Параметр Endianness формата : Big
Идентификатор кодека : A_AC3
Продолжительность : 1 ч. 50 м.
Вид битрейта : Постоянный
Битрейт : 192 Кбит/сек
Каналы : 2 канала
Расположение каналов : Front: L R
Частота : 48,0 КГц
Битовая глубина : 16 бит
Метод сжатия : С потерями
Размер потока : 151 Мбайт (6%)
Язык : English
Default : Нет
Forced : Нет
Меню
00:00:00.000 : :Chapter 01
00:00:15.334 : :Chapter 02
00:07:52.202 : :Chapter 03
00:16:16.536 : :Chapter 04
00:26:16.770 : :Chapter 05
00:40:48.671 : :Chapter 06
00:47:59.938 : :Chapter 07
00:57:31.038 : :Chapter 08
01:04:28.839 : :Chapter 09
01:08:25.506 : :Chapter 10
01:16:20.673 : :Chapter 11
01:26:51.173 : :Chapter 12
01:35:37.573 : :Chapter 13
01:42:47.740 : :Chapter 14
01:46:58.674 : :Chapter 15
 
Показать сообщения:    

Текущее время: Сегодня 00:59

Часовой пояс: GMT



Вы не можете начинать темы
Вы не можете отвечать на сообщения
Вы не можете редактировать свои сообщения
Вы не можете удалять свои сообщения
Вы не можете голосовать в опросах
Вы не можете прикреплять файлы к сообщениям
Вы не можете скачивать файлы
Наши партнеры: интернет магазин Ивановского трикотажа textilla.ru