Важное объявление!
У Нас Все раздачи мультитрекерные, при нуле пиров в релизах, можете смело вставать на закачку!
 
Автор Сообщение

HUNTER

Стаж:
4 года 4 месяца
Сообщений:
56808

Репутация: 101

[+] [-]
Вне форума [Профиль] [ЛС]

Романс Валькирии / Walkure Romanze-
Страна: Япония
Год выпуска: 2013 г.
Выпуск: c 07.10.2013 по 23.12.2013
Жанр: романтика, спорт, этти
Тип: ТВ (12 эп.), 25 мин.
Режиссёр: Ямамото Юсукэ
Сценарий: Фудэясу Кадзуюки
Студия: 8bit-Краткое содержание: В этом мире рыцарские схватки превратились в популярный спорт, и попасть в рыцарскую академию, что раскинулась в стилизованном средневековом городе, стремятся талантливые ребята со всего мира. Исход поединка решает не грубая сила, а точность ударов, потому ристалище доступно для всех. Такахиро Мидзуно считался одним из лучших, но в старшей школе из-за травмы был вынужден перейти в оруженосцы, то есть в помощники и тренеры, которые могут полностью раскрыть потенциал бойца и его коня. Хорошие помощники ценятся на вес золота, потому недостатка в приглашениях к сотрудничеству перед летним турниром у парня не было. Стоит ли удивляться, что все предложения поступили от бойцов-девушек?! Самое весомое из них, разумеется, сделала Селия Кумани Энтре, президент совета и первый рыцарь академии. Ее извечная соперница Ноэль Марс Аскот не захотела уступать и тоже обратилась с аналогичной просьбой. Не отстала от старших подруг перспективный новичок Лиза Эостре – в конце концов, ей «принимать школу» после ухода нынешних суперзвезд. Ну и, конечно, есть подруга детства Мио Кисаки, которая, правда, в седле сидеть не умеет, но… что не сделаешь ради любимого! В общем, достойные леди и джентльмены, турнир уже начался – делайте ставки на победительницу!
© Hollow, World Art-Озвучивание:
  • двухголосое (муж./жен.) ShadMG & NesTea (SHIZA Project) [Sample]
Работа над звуком и таймингом: Gigantic Guyver
Работа над переводом: Zool
Релиз от: -Тип релиза: Без хардсаба
Качество: HDTVRip
Автор рипа: Anime-Koi
Формат видео: MP4
Наличие линковки: Нет
Видео: x264 [10bit], 1280x720, ~2250 kbps, 23,976 fps
Аудио:
  • : AAC, 192 kbps, 48 kHz, 2 ch (в составе контейнера)
  • : AAC, 128 kbps, 44.1 kHz, 2 ch
-Релиз завершен! Добавлены сабы.UPD: 05/01/13-

Подробные тех. данные

MI

Общее
Полное имя : D:\Releases\[SHIZA Project] Walkure Romanze TV [ShadMG & NesTea] [HDTVRip]\[SHIZA Project] Walkure Romanze TV [01] [ShadMG & NesTea].mp4
Формат : MPEG-4
Профиль формата : Base Media
Идентификатор кодека : isom
Размер файла : 438 Мбайт
Продолжительность : 23 м.
Режим общего битрейта : Переменный
Общий поток : 2587 Кбит/сек
Дата кодирования : UTC 2013-10-11 18:44:38
Дата пометки : UTC 2013-10-11 18:44:38
Программа кодирования : Yamb 2.1.0.0 []http://yamb.unite-video.com]
Видео
Идентификатор : 1
Формат : AVC
Формат/Информация : Advanced Video Codec
Профиль формата : High 10@L4.0
Параметр CABAC формата : Да
Параметр ReFrames формата : 9 кадров
Идентификатор кодека : avc1
Идентификатор кодека/Информация : Advanced Video Coding
Продолжительность : 23 м.
Битрейт : 2262 Кбит/сек
Максимальный битрейт : 20,6 Мбит/сек
Ширина : 1280 пикселей
Высота : 720 пикселей
Соотношение сторон : 16:9
Режим частоты кадров : Постоянный
Частота кадров : 23,976 кадра/сек
Цветовое пространство : YUV
Субдискретизация насыщенности : 4:2:0
Битовая глубина : 10 бит
Тип развёртки : Прогрессивная
Бит/(Пиксели*Кадры) : 0.102
Размер потока : 383 Мбайт (87%)
Заголовок : SHIZA-Project
Библиотека кодирования : x264 core 138 r2358+22 [x86_64 10bit-depth]
Настройки программы : cabac=1 / ref=9 / deblock=1:1:1 / analyse=0x3:0x133 / me=umh / subme=10 / psy=1 / fade_compensate=1.00 / psy_rd=0.70:0.00 / mixed_ref=1 / me_range=24 / chroma_me=1 / trellis=2 / 8x8dct=1 / cqm=0 / deadzone=21,11 / fast_pskip=0 / chroma_qp_offset=-2 / threads=12 / lookahead_threads=2 / sliced_threads=0 / nr=0 / decimate=1 / interlaced=0 / bluray_compat=0 / constrained_intra=0 / fgo=0 / bframes=8 / b_pyramid=2 / b_adapt=2 / b_bias=0 / direct=3 / weightb=1 / open_gop=0 / weightp=2 / keyint=250 / keyint_min=23 / scenecut=40 / intra_refresh=0 / rc_lookahead=80 / rc=crf / mbtree=1 / crf=17.8000 / qcomp=0.75 / qpmin=0 / qpmax=81 / qpstep=4 / ip_ratio=1.40 / aq=3:0.95
Язык : Japanese
Дата кодирования : UTC 2013-10-11 18:44:38
Дата пометки : UTC 2013-10-11 18:46:32
Основные цвета : BT.709
Характеристики трансфера : BT.709
Коэффициенты матрицы : BT.709
Аудио #1
Идентификатор : 2
Формат : AAC
Формат/Информация : Advanced Audio Codec
Профиль формата : LC
Идентификатор кодека : 40
Продолжительность : 23 м.
Вид битрейта : Переменный
Битрейт : 192 Кбит/сек
Максимальный битрейт : 229 Кбит/сек
Каналы : 2 канала
Расположение каналов : Front: L R
Частота : 48,0 КГц
Метод сжатия : С потерями
Размер потока : 32,5 Мбайт (7%)
Заголовок : ShadMG & NesTea
Язык : Russian
Дата кодирования : UTC 2013-10-11 18:46:30
Дата пометки : UTC 2013-10-11 18:46:32
Аудио #2
Идентификатор : 3
Формат : AAC
Формат/Информация : Advanced Audio Codec
Профиль формата : LC
Идентификатор кодека : 40
Продолжительность : 23 м.
Вид битрейта : Переменный
Битрейт : 128 Кбит/сек
Максимальный битрейт : 142 Кбит/сек
Каналы : 2 канала
Расположение каналов : Front: L R
Частота : 44,1 КГц
Метод сжатия : С потерями
Размер потока : 21,7 Мбайт (5%)
Заголовок : Original
Язык : Japanese
Дата кодирования : UTC 2013-10-11 18:46:30
Дата пометки : UTC 2013-10-11 18:46:32

avdump

File: D:\Releases\[SHIZA Project] Walkure Romanze TV [ShadMG & NesTea] [HDTVRip]\[SHIZA Project] Walkure Romanze TV [01] [ShadMG & NesTea].mp4
Duration: 00:23:40 (1420.2)
Track #1: video (SHIZA-Project)
lang: ja (2)
codc: avc1 -> H264/AVC (22)
reso: 1280x720 -> 16:9
fram: 23.976 fps
rate: 2262 kbps (2261.79)
dura: 00:23:40 (1420)
size: 0.00 B (0)
Track #2: audio (ShadMG & NesTea)
lang: ru -> Russian (15)
codc: A_AAC/MPEG4/LC -> AAC (9)
chan: 2 -> Stereo
samp: 48000 Hz
rate: 192 kbps (192.07)
dura: 00:23:40 (1420.20)
size: 0.00 B (0)
Track #3: audio (Original)
lang: ja -> Japanese (2)
codc: A_AAC/MPEG4/LC -> AAC (9)
chan: 2 -> Stereo
samp: 44100 Hz
rate: 128 kbps (128.00)
dura: 00:23:40 (1420.16)
size: 0.00 B (0)
Sizes: (check sanity)
disk: 438.00 MB (459281496)
trac: 0.00 B (0) [based on track size]
bitr: 437.05 MB (458280787) [based on bitrate]
tdif: 438.00 MB (459281496) 100.00%
bdif: 977.25 KB (1000708) 0.21%

Список эпизодов

01. Вишнёвый сад ~Неокрепшие Рыцари~
02. Злоключения Мио ~Обычная Девушка~
03. Утро перед дуэлью ~Победа или Поражение~
04. Что значит быть рыцарем ~Честь~
05. Сбросившие броню девы ~Чаепитие~
06. Отдых в Хелен Хилл ~Заботы Т.М.~
07. Ветряная Мельница ~Легендарный рыцарь~
08. Звезда, услышь желание моё ~Сердешная кручина~
09. Фестиваль Юных Дев ~То, что под юбкой~
10. Столкновение ~Начало схватки~
11. Там, где победа ~Не сдаваться!~
12. Закат лета ~Завершение~

Скриншоты

-

_________________
Показать сообщения:    

Текущее время: Сегодня 13:00

Часовой пояс: GMT



Вы не можете начинать темы
Вы не можете отвечать на сообщения
Вы не можете редактировать свои сообщения
Вы не можете удалять свои сообщения
Вы не можете голосовать в опросах
Вы не можете прикреплять файлы к сообщениям
Вы не можете скачивать файлы