Важное объявление!
У Нас Все раздачи мультитрекерные, при нуле пиров в релизах, можете смело вставать на закачку!
 
Автор Сообщение

HUNTER

Стаж:
4 года 4 месяца
Сообщений:
56839

Репутация: 101

[+] [-]
Вне форума [Профиль] [ЛС]

Рок Ку-ка-ре-ку / Rock-A-Doodle
Страна: США, Великобритания, Ирландия
Жанр: Мультфильм, приключения
Продолжительность: 01:11:19
Год выпуска: 1991
Перевод 1: Профессиональный (дублированный) Екатеринбург Арт
Перевод 2: Профессиональный (многоголосый закадровый) Селена инт.
Перевод 3: Профессиональный (многоголосый закадровый) по заказу Twister
Перевод 4: Авторский (одноголосый закадровый) А.Гаврилов
Оригинальная аудио-дорожка: есть (английская) отдельным файлом
Русские субтитры: есть-Режиссёр: Дон Блат / Don Bluth-Роли озвучивали: Соррелл Буке, Глен Кэмпбелл, Эдди Дизен, Сэнди Данкэн, Тоби Скотт Гэнгер, Эллен Грин, Фил Хэррис, Стэн Айвэр, Лио, Джейсон Марин, Эдди Митчелл, Том Новембр, Кристофер Пламмер, Чарлз Нелсон Райлли, Уилл Райан-Описание: Яркий мультфильм Дона Блата, режиссера таких Восхитительных мультфильмов как "Анастасия", "Титан после гибели Земли", "Барток великолепнный", "Земля до начала времен", "Американский хвостик"
Каждое утро петух Шантеклер будил своей песней солнце. Это очень не нравилось злому филину по прозвищу Великий Герцог, ненавидевшему свет и любившему ночную тьму.Одним прекрасным утром, когда Шантеклер дрался с другим петухом, солнце взошло без его песни. И тогда опозоренный певец покинул родную ферму, чтобы найти счастье в большом городе.И тут же солнце перестало всходить, а над землей нависли огромные черные тучи. Великий Герцог уже празднует победу, но обитатели фермы во главе с пушистым белым котенком Эдмондом отправляются в рискованное путешествие в надежде найти Шантеклера и вернуть украденное солнце…-Релиз от: -Благодарности:
alenavova - дубляж Екатеринбург Арт
Home Video - многоголоска Селена инт.
Volfgang77 - ДВД
*Sergeant_am* - синхронизация Селена инт., снятие субтитров и рип с ДВД
-Семпл: http://multi-up.com/1076313-Качество: DVDRip
Формат: AVI-Видео: 704x528 (4:3), 25 fps, XviD build 73 ~1900 kbps avg, 0.20 bit/pixel
Аудио 1: 48 kHz, AC3 Dolby Digital, 2/0 (L,R) ch, ~192.00 kbps avg (DUB) Екатеринбург Арт
Аудио 2: 48 kHz, AC3 Dolby Digital, 2/0 (L,R) ch, ~192.00 kbps avg (MVO) Селена инт.
Аудио 3: 48 kHz, AC3 Dolby Digital, 3/2 (L,C,R,l,r) + LFE ch, ~384.00 kbps avg (MVO) по заказу Twister
Аудио 4: 48 kHz, AC3 Dolby Digital, 2/0 (L,R) ch, ~192.00 kbps avg (AVO) А.Гаврилов
Аудио 5: 48 kHz, AC3 Dolby Digital, 3/2 (L,C,R,l,r) + LFE ch, ~384.00 kbps avg (eng) отдельным файлом
Формат субтитров: SRT

Как добавить/удалить/поменять местами звуковую дорожку

Из за ограничений контейнера AVI, часто, звуковые дорожки к фильмам идут отдельными файлами. Но смотреть их хочется именно с этими дорожками, да еще и на бытовом плеере, который отдельных дорожек не понимает. Что делать? Прикрепить желаемую дорожку к фильму!
Многие скажут, это же сложно, нужно уметь пользоваться видеоредакторами, но это не так. Все невероятно легко!
Для начала нужно скачать программу VirtualDub 1.5.10.2
установили её, запускаем и видим вот такое окно:

Жмем File, Open video file (Файл -> открыть видеофайл...). И выбираем файл с фильмом.

Жмем Streams, stream list (Потоки -> потоки).

Жмем Add (Добавить)

И выбираем файл со звуковой дорожкой.
Теперь мы можем переместить нажу дорожку наверх (чтобы она воспроизводилась по умолчанию) кнопкой Move Up (Вверх, Вниз). Или же вообще убрать не нужную нам дорожку кнопкой Disable (Отключить). После всех действий жмем OK.

Время сохранять файл. Жмем File, Save As (Файл -> Сохранить как).

В открывшемся окне вводим имя файла. И выставляем Direct Stream Copy (Прямопотоковое копирование) в параметре Video Mode (Видеорежим). Это очень важно, т.к. если этого не сделать видео будет подвергнуто перекодированию и потеряет в качестве. Кроме того перекодирование занимает гораздо больше времени чем простое копирование потока.

Жмем сохранить и через несколько минут получаем фильм с нужной звуковой дорожкой.

Отчёт MediaInfo

ОбщееПолное имя : D:\Рок Ку-ка-ре-ку\Рок Ку-ка-ре-ку (DUB+MVO+MVO+AVO).aviФормат : AVIФормат/Информация : Audio Video InterleaveРазмер файла : 1,44 ГбайтПродолжительность : 1 ч. 11 м.Общий поток : 2882 Кбит/секПрограмма кодирования : VirtualDubModRus 1.5.10.2 (build 2542/release)Библиотека кодирования : VirtualDubMod build 2542/release
ВидеоИдентификатор : 0Формат : MPEG-4 VisualПрофиль формата : Advanced Simple@L5Параметр BVOP формата : 1Параметр QPel формата : НетПараметр GMC формата : Без точки переходаПараметр матрицы формата : ВыборочнаяИдентификатор кодека : DX50Идентификатор кодека/Подсказка : DivX 5Продолжительность : 1 ч. 11 м.Битрейт : 1898 Кбит/секШирина : 704 пикселяВысота : 528 пикселейСоотношение сторон : 4:3Частота кадров : 25,000 кадров/секЦветовое пространство : YUVСубдискретизация насыщенности : 4:2:0Битовая глубина : 8 битТип развёртки : ПрогрессивнаяМетод сжатия : С потерямиБит/(Пиксели*Кадры) : 0.204Размер потока : 968 Мбайт (66%)Библиотека кодирования : XviD 73
Аудио #1Идентификатор : 1Формат : AC-3Формат/Информация : Audio Coding 3Расширение режима : CM (complete main)Параметр Endianness формата : BigИдентификатор кодека : 2000Продолжительность : 1 ч. 11 м.Вид битрейта : ПостоянныйБитрейт : 192 Кбит/секКаналы : 2 каналаРасположение каналов : Front: L RЧастота : 48,0 КГцБитовая глубина : 16 битМетод сжатия : С потерямиРазмер потока : 97,9 Мбайт (7%)Выравнивание : Разделение по промежуткамПродолжительность промежутка : 40 мс. (1,00 видеокадр)Время предзагрузки промежутка : 500 мс.
Аудио #2Идентификатор : 2Формат : AC-3Формат/Информация : Audio Coding 3Расширение режима : CM (complete main)Параметр Endianness формата : BigИдентификатор кодека : 2000Продолжительность : 1 ч. 11 м.Вид битрейта : ПостоянныйБитрейт : 192 Кбит/секКаналы : 2 каналаРасположение каналов : Front: L RЧастота : 48,0 КГцБитовая глубина : 16 битМетод сжатия : С потерямиРазмер потока : 97,9 Мбайт (7%)Выравнивание : Разделение по промежуткамПродолжительность промежутка : 40 мс. (1,00 видеокадр)Время предзагрузки промежутка : 500 мс.
Аудио #3Идентификатор : 3Формат : AC-3Формат/Информация : Audio Coding 3Расширение режима : CM (complete main)Параметр Endianness формата : BigИдентификатор кодека : 2000Продолжительность : 1 ч. 11 м.Вид битрейта : ПостоянныйБитрейт : 384 Кбит/секКаналы : 6 каналовРасположение каналов : Front: L C R, Side: L R, LFEЧастота : 48,0 КГцБитовая глубина : 16 битМетод сжатия : С потерямиРазмер потока : 196 Мбайт (13%)Выравнивание : Разделение по промежуткамПродолжительность промежутка : 40 мс. (1,00 видеокадр)Время предзагрузки промежутка : 500 мс.
Аудио #4Идентификатор : 4Формат : AC-3Формат/Информация : Audio Coding 3Расширение режима : CM (complete main)Параметр Endianness формата : BigИдентификатор кодека : 2000Продолжительность : 1 ч. 11 м.Вид битрейта : ПостоянныйБитрейт : 192 Кбит/секКаналы : 2 каналаРасположение каналов : Front: L RЧастота : 48,0 КГцБитовая глубина : 16 битМетод сжатия : С потерямиРазмер потока : 97,9 Мбайт (7%)Выравнивание : Разделение по промежуткамПродолжительность промежутка : 40 мс. (1,00 видеокадр)Время предзагрузки промежутка : 500 мс.

Скриншоты


_________________
Показать сообщения:    

Текущее время: Сегодня 05:12

Часовой пояс: GMT



Вы не можете начинать темы
Вы не можете отвечать на сообщения
Вы не можете редактировать свои сообщения
Вы не можете удалять свои сообщения
Вы не можете голосовать в опросах
Вы не можете прикреплять файлы к сообщениям
Вы не можете скачивать файлы