Важное объявление!
У Нас Все раздачи мультитрекерные, при нуле пиров в релизах, можете смело вставать на закачку!
 
Автор Сообщение

димитри37

Стаж:
3 года 8 месяцев
Сообщений:
1237

Репутация: 127

[+] [-]
Вне форума [Профиль] [ЛС]

Розыскник
Год выпуска: 2013
Производство: Россия, Триикс Медиа
Жанр: Детектив
Продолжительность: ~ 00:45:00
Субтитры: нет
Режиссёр: Арменак Назикян
В ролях: Александр Лыков, Наталья Круглова, Владислав Резник, Алексей Красноцветов, Кристина Бродская, Артем Цыпин, Елизавета Турская
Описание: Когда-то Виктор Попов пришел на службу в милицию, чтобы «служить и защищать». Но прошло время, и Виктор стал своеобразным «заложником системы». Вместо того, чтобы бороться с преступностью, он, профессиональный розыскник, вместе со своими коллегами, вынужден выполнять различные распоряжения своего непосредственного начальника полковника Костромина. По сути, Попов и его коллеги – полицейские на службе у криминального бизнесмена Юрия Гаврилова, который их руками устранят своих конкурентов. В какой-то момент времени мир вокруг Попова стремительно меняется. При задержании опасного преступника гибнет его напарник. Виктор узнает об измене жены и уходит из дома. Его дочь, после развода родителей, начинает встречаться с наркодиллером и переезжает к нему жить. Школьный друг, обратившийся к Попову за защитой от «полицейского беспредела», так и не дождавшись помощи, заканчивает жизнь самоубийством. Эти и другие события заставляют Попова по-другому взглянуть на свою жизнь. В последней попытке остаться человеком, а не хладнокровным «оборотнем в погонах», Виктор вынужден вступить в противостояние со своими коллегами. Теперь для коррумпированных полицейских Виктор, как кость в горле. Он слишком много знает, он перестал подчиняться приказам, он представляет угрозу для всей системы. Чтобы остановить Попова, его коллеги пойдут на все. Только они забыли, что Виктор не случайный человек в полиции. Он профессиональный розыскник и каждый его ход продуман до мелочей…
Качество: SATRip
Формат: AVI
Видео кодек: XviD
Аудио кодек: MP3
Видео: 720x384 (1.88:1), 25 fps, XviD build 50 ~1493 kbps avg, 0.22 bit/pixel
Аудио: 48 kHz, MPEG Layer 3, 2 ch, ~192.00 kbps avg

MI

General
Complete name : V:\ftp4\Videos\Rozysknik.01.seriya.XviD.2013.SATRip.Files-x.avi
Format : AVI
Format/Info : Audio Video Interleave
File size : 550 MiB
Duration : 45mn 20s
Overall bit rate : 1 695 Kbps
Writing application : VirtualDubMod 1.5.10.3 | www.virtualdub-fr.org || (build 2550/release)
Writing library : VirtualDubMod build 2550/release
Video
ID : 0
Format : MPEG-4 Visual
Format profile : Advanced Simple@L5
Format settings, BVOP : 1
Format settings, QPel : No
Format settings, GMC : No warppoints
Format settings, Matrix : Default (H.263)
Codec ID : XVID
Codec ID/Hint : XviD
Duration : 45mn 20s
Bit rate : 1 494 Kbps
Width : 720 pixels
Height : 384 pixels
Display aspect ratio : 1.85:1
Frame rate : 25.000 fps
Color space : YUV
Chroma subsampling : 4:2:0
Bit depth : 8 bits
Scan type : Progressive
Compression mode : Lossy
Bits/(Pixel*Frame) : 0.216
Stream size : 484 MiB (88%)
Writing library : XviD 1.2.1 (UTC 2008-12-04)
Audio
ID : 1
Format : MPEG Audio
Format version : Version 1
Format profile : Layer 3
Codec ID : 55
Codec ID/Hint : MP3
Duration : 45mn 20s
Bit rate mode : Constant
Bit rate : 192 Kbps
Channel(s) : 2 channels
Sampling rate : 48.0 KHz
Compression mode : Lossy
Stream size : 62.3 MiB (11%)
Alignment : Aligned on interleaves
Interleave, duration : 40 ms (1.00 video frame)
Interleave, preload duration : 504 ms
Writing library : LAME3.98r
Encoding settings : -m s -V 4 -q 2 -lowpass 18.6 -b 192

Скриншоты

Раздача ведется путем добавления новых серий

Внимание! Раздача ведётся путём добавления новых серий; при каждом добавлении создётся новый торрент. Чтобы начать докачку новой серии, пользователям необходимо сделать следующее:
(1) остановить скачивание,
(2) удалить старый торрент у себя из клиента (старые серии удалять не надо),
(3) скачать новый торрент и запустить его у себя в клиенте вместо старого, при этом указать клиенту путь в старую папку куда и должно происходить скачивание новых серий.
Ваш клиент при этом должен произвести хеширование (проверку) старой папки (если не производит сам - помогите ему сделать это), и будет докачивать только те серии которых у вас ещё нет. Старые серии при этом не удаляются, а продолжают раздаваться!
Eсли вы уже удалили старые серии, то предотвратить повторную закачку старых серий можно, отжав галочку в соответствующих местах при запуске нового торрента.
-
Показать сообщения:    

Текущее время: Сегодня 20:55

Часовой пояс: GMT



Вы не можете начинать темы
Вы не можете отвечать на сообщения
Вы не можете редактировать свои сообщения
Вы не можете удалять свои сообщения
Вы не можете голосовать в опросах
Вы не можете прикреплять файлы к сообщениям
Вы не можете скачивать файлы