Важное объявление!
У Нас Все раздачи мультитрекерные, при нуле пиров в релизах, можете смело вставать на закачку!
 
Автор Сообщение

HUNTER

Стаж:
4 года 4 месяца
Сообщений:
56783

Репутация: 101

[+] [-]
Вне форума [Профиль] [ЛС]

Розовая лошадь / Ride the Pink Horse
Страна: США
Жанр: нуар
Год выпуска: 1947
Продолжительность: 01:41:33
Перевод: Профессиональный (многоголосый закадровый) телеканал "СТС"
Cубтитры: английские
Оригинальная аудиодорожка: английский-Режиссер: Роберт Монтгомери / Robert Montgomery
В ролях: Роберт Монтгомери, Айрис Флорес, Ванда Хендрикс, Томас Гомес, Фред Кларк, Ричард Гейнс, Рита Конде, Тито Ренальдо, Грэндон Родс, Мартин Гарралага, Эдвард Эрл, Дональд Керр, Андреа Кинг, Харолд Гудвин
Описание: По одноименному роману Дороти Б.Хьюз.
В Сан-Пабло, деревушку в штате Нью-Мехико, где на ежегодном празднике готовятся сжечь на костре бога невезения, приезжает чужак, Счастливчик Гейджин. Он хочет отомстить за смерть своего товарища по прозвищу Коротышка, убитого подручными бандита Фрэнка Хьюго. Но Гейджин поддается искушению заработать на этом деле и пытается шантажировать Хьюго, требуя деньги за смерть своего друга. В это же время в городке появляется агент ФБР Билл Ретц, который выспрашивает у Гейджина информацию, чтобы он мог засадить Хьюго за решетку. Но у Гейджина совсем другие планы: он не собирается оставлять Хьюго в живых...
IMDb || КиноПоиск-Тип релиза: BDRip 720p [VietHD]
Контейнер: MKV
Видео: x264/AVC, 986x720 at 23.976 fps, 7341 kbps
Аудио#1: Russian: 48 kHz, AC3, 2.0 ch, 192 kbps
Аудио#2: English: 48 kHz, FLAC, 1.0 ch, 234 kbps
Аудио#3: English: 48 kHz, AC3, 1.0 ch, 192 kbps |Commentary
Формат субтитров: softsub (SRT)
Сэмпл

Дополнительно

За отечественную дорожку спасибо dmitry2264.

MediaInfo

General
Unique ID : 217487780664031580741266743008542631943 (0xA39E9F7877582BC68E1C8CBB8474A807)
Complete name : K:\Torrent\Розовая лошадь\Ride.the.Pink.Horse.1947.Criterion.720p.x264-VietHD. rutracker.mkv
Format : Matroska
Format version : Version 2
File size : 5.75 GiB
Duration : 1h 41mn
Overall bit rate mode : Variable
Overall bit rate : 8 108 Kbps
Movie name : Release for RuTracker
Writing application : mkvmerge v5.0.1 ('Es ist Sommer') built on Nov 6 2011 16:23:40
Writing library : libebml v1.2.2 + libmatroska v1.3.0
Video
ID : 1
Format : AVC
Format/Info : Advanced Video Codec
Format profile : High@L4.1
Format settings, CABAC : Yes
Format settings, ReFrames : 11 frames
Codec ID : V_MPEG4/ISO/AVC
Duration : 1h 41mn
Width : 986 pixels
Height : 720 pixels
Display aspect ratio : 4:3
Frame rate mode : Constant
Frame rate : 23.976 fps
Color space : YUV
Chroma subsampling : 4:2:0
Bit depth : 8 bits
Scan type : Progressive
Title : Ride.the.Pink.Horse.1947.Criterion.720p.x264-VietHD
Writing library : x264 core 133 r2334 a3ac64b
Encoding settings : cabac=1 / ref=11 / deblock=1:-3:-3 / analyse=0x3:0x133 / me=umh / subme=10 / psy=1 / psy_rd=1.00:0.00 / mixed_ref=1 / me_range=16 / chroma_me=1 / trellis=2 / 8x8dct=1 / cqm=0 / deadzone=21,11 / fast_pskip=0 / chroma_qp_offset=-2 / threads=24 / lookahead_threads=5 / sliced_threads=0 / nr=0 / decimate=0 / interlaced=0 / bluray_compat=0 / constrained_intra=0 / bframes=10 / b_pyramid=2 / b_adapt=2 / b_bias=0 / direct=3 / weightb=1 / open_gop=0 / weightp=2 / keyint=250 / keyint_min=23 / scenecut=40 / intra_refresh=0 / rc=crf / mbtree=0 / crf=17.5 / qcomp=0.65 / qpmin=0 / qpmax=69 / qpstep=4 / ip_ratio=1.40 / pb_ratio=1.20 / aq=1:0.85
Language : English
Default : Yes
Forced : No
Audio #1
ID : 2
Format : AC-3
Format/Info : Audio Coding 3
Mode extension : CM (complete main)
Format settings, Endianness : Big
Codec ID : A_AC3
Duration : 1h 41mn
Bit rate mode : Constant
Bit rate : 192 Kbps
Channel(s) : 2 channels
Channel positions : Front: L R
Sampling rate : 48.0 KHz
Bit depth : 16 bits
Compression mode : Lossy
Stream size : 139 MiB (2%)
Language : Russian
Default : Yes
Forced : No
Audio #2
ID : 3
Format : FLAC
Format/Info : Free Lossless Audio Codec
Codec ID : A_FLAC
Duration : 1h 41mn
Bit rate mode : Variable
Channel(s) : 1 channel
Sampling rate : 48.0 KHz
Bit depth : 16 bits
Writing library : libFLAC 1.2.1 (UTC 2007-09-17)
Language : English
Default : No
Forced : No
Audio #3
ID : 4
Format : AC-3
Format/Info : Audio Coding 3
Mode extension : CM (complete main)
Format settings, Endianness : Big
Codec ID : A_AC3
Duration : 1h 41mn
Bit rate mode : Constant
Bit rate : 192 Kbps
Channel(s) : 1 channel
Channel positions : Front: C
Sampling rate : 48.0 KHz
Bit depth : 16 bits
Compression mode : Lossy
Stream size : 139 MiB (2%)
Title : Commentary
Language : English
Default : No
Forced : No
Text #1
ID : 5
Format : UTF-8
Codec ID : S_TEXT/UTF8
Codec ID/Info : UTF-8 Plain Text
Language : English
Default : No
Forced : No
Text #2
ID : 6
Format : UTF-8
Codec ID : S_TEXT/UTF8
Codec ID/Info : UTF-8 Plain Text
Title : SDH
Language : English
Default : No
Forced : No
Menu
00:00:00.000 : en:Welcome to San Pablo
00:08:14.494 : en:Looking for Mr.Hugo
00:14:35.875 : en:Tailed by Uncle Sam
00:20:41.615 : en:Tres Violetas
00:29:46.785 : en:Merry-go-round
00:37:32.708 : en:Hunting lions
00:47:18.126 : en:Three important minutes
00:58:15.909 : en:Meeting at the Tip Top
01:05:10.072 : en:Fiesta
01:16:46.852 : en:Friend of Pancho
01:24:49.542 : en:"Big money"
01:35:06.033 : en:Pony Express

Скриншоты


_________________
Показать сообщения:    

Текущее время: Сегодня 20:52

Часовой пояс: GMT



Вы не можете начинать темы
Вы не можете отвечать на сообщения
Вы не можете редактировать свои сообщения
Вы не можете удалять свои сообщения
Вы не можете голосовать в опросах
Вы не можете прикреплять файлы к сообщениям
Вы не можете скачивать файлы