Важное объявление!
У Нас Все раздачи мультитрекерные, при нуле пиров в релизах, можете смело вставать на закачку!
 
Автор Сообщение

HUNTER

Стаж:
4 года 4 месяца
Сообщений:
56839

Репутация: 101

[+] [-]
Вне форума [Профиль] [ЛС]

Рождество с Каю / Caillou's Holiday Movie-Страна: Канада
Жанр: мультфильм, детский, семейный
Продолжительность: 01:09:45
Год выпуска: 2003
Перевод: Профессиональный (дублированный)
Русские субтитры: нет-Режиссёр: Ник Риджгерсберг / Nick Rijgersberg- | Релиз: -Описание: Мальчик Каю вместе со всей своей семьей узнают о разных традициях празднования Рождества и Нового года по всему свету.-Семпл: http://sendfile.su/1189799-Качество: DVB
Формат: TS
Видео: 720x576 (4:3) @ 786x576, 25.000 fps, AVC, ~2319 Kbps, 0.224 bits/pixel
Аудио: Русский, 48.0 KHz, MPEG-1 Audio layer 2, 2 ch, 192 kbps
Субтитры: отсутствуют

MediaInfo

GeneralID : 1 (0x1)Complete name : Caillou's Holiday Movie 2003 TiJi Dub.tsFormat : MPEG-TSFile size : 1.29 GiBDuration : 1h 9mnOverall bit rate mode : VariableOverall bit rate : 2 643 KbpsMaximum Overall bit rate : 35.5 Mbps
VideoID : 4113 (0x1011)Menu ID : 1 (0x1)Format : AVCFormat/Info : Advanced Video CodecFormat profile : High@L3Format settings, CABAC : YesFormat settings, ReFrames : 4 framesCodec ID : 27Duration : 1h 9mnBit rate : 2 319 KbpsWidth : 720 pixelsHeight : 576 pixelsDisplay aspect ratio : 4:3Frame rate : 25.000 fpsStandard : PALColor space : YUVChroma subsampling : 4:2:0Bit depth : 8 bitsScan type : InterlacedScan type, store method : Separated fieldsScan order : Top Field FirstBits/(Pixel*Frame) : 0.224Stream size : 1.13 GiB (88%)Color range : LimitedColor primaries : BT.601 PALTransfer characteristics : BT.470 System B, BT.470 System GMatrix coefficients : BT.601
AudioID : 4352 (0x1100)Menu ID : 1 (0x1)Format : MPEG AudioFormat version : Version 1Format profile : Layer 2Codec ID : 4Duration : 1h 9mnBit rate mode : ConstantBit rate : 192 KbpsChannel(s) : 2 channelsSampling rate : 48.0 KHzCompression mode : LossyStream size : 95.8 MiB (7%)Language : Russian

_________________
Показать сообщения:    

Текущее время: Сегодня 21:17

Часовой пояс: GMT



Вы не можете начинать темы
Вы не можете отвечать на сообщения
Вы не можете редактировать свои сообщения
Вы не можете удалять свои сообщения
Вы не можете голосовать в опросах
Вы не можете прикреплять файлы к сообщениям
Вы не можете скачивать файлы