Важное объявление!
У Нас Все раздачи мультитрекерные, при нуле пиров в релизах, можете смело вставать на закачку!
 
Автор Сообщение

HUNTER

Стаж:
4 года 4 месяца
Сообщений:
56829

Репутация: 101

[+] [-]
Вне форума [Профиль] [ЛС]

Рождественский коттедж / Christmas Cottage / _[USA_EDITION]_«Love is the brightest light of all»СВЕТЛОЙ ПАМЯТИ _[Peter Seamus Lorcan O'Toole]_[2 August 1932 – 14 December 2013]_ & _[Thomas Kinkade]_[January 19, 1958 – April 6, 2012]_
Страна: США & Канада
Студия: Lionsgate
Жанр: драма, биография
Год выпуска: 2008
Продолжительность: 01:43:43
Перевод 1: Профессиональный (многоголосый закадровый) |MVO, R5|
Перевод 2: Любительский (двухголосый закадровый) |DVO, Interfilm|
Перевод 3: Одноголосый закадровый |Замез, Вячеслав|
Перевод 4: Одноголосый закадровый |Нурмухаметов, Данис Василович|
Перевод 5: Авторский (одноголосый закадровый) |Сербин, Юрий Владимирович|
Перевод 6: Авторский (одноголосый закадровый) |Дольский, Андрей Игоревич|
Cубтитры: русские, английские
Оригинальная аудиодорожка: английский
Режиссер: Майкл Кампус / Michael Campus
В ролях: Джаред Падалеки, Марша Гэй Харден, Питер О`Тул, Джеффри Льюис, Аарон Эшмор, Ричард Берджи, Крис Эллиот, Ричард Молл, Кирстен Уоррен, Джей Бразо, Шарлотта Рэй, Эдвард Эснер, Теган Мосс, Джина Холден, Малкольм Стюарт, Габриель Роз, Дэвид Бортолуччи, Эндрю МакНи, Чанг Тсенг, Нэнси Робертсон, Брендан Пенни, Челан Симмонс, Билли Вискман, Коннор Логан Хилл, Лаура Меннелл, Дэвид Куинлэн, Томас Кинкейд, Джонни Савчук
Описание: Обратить внимание на свой талант будущему художнику Томасу Кинкейду помогло несчастье — его мать чуть не лишилась собственного дома, и чтобы помочь ей расплатиться с долгами, молодой человек взялся изобразить рождественскую фреску на доме в центре небольшого городка. Художнику удалось создать настолько теплое и искреннее произведение, которое смогло изменить жизнь небольшого городка...
Сэмпл: https://yadi.sk/i/Cn_69zzDegvrS
Тип релиза: BDRemux 1080p
Контейнер: MKV
Видео: MPEG-4 AVC Video / 20998 kbps / 1080p / 23,976 fps / 16:9 / High Profile 4.1
Аудио 1: Russian / 48 kHz, AC3, 5.1, ~ 448 / 16-bit / kbps |MVO, R5|
Аудио 2: Russian / 48 kHz, AC3, 5.1, ~ 448 / 16-bit / kbps |DVO, Interfilm|
Аудио 3: Russian / DTS-HD MA / 5.1 / 48 kHz / 1813 kbps / 16-bit (DTS Core: 5.1 48 kHz 1509 kbps 16-bit) |Замез, Вячеслав|
Аудио 4: Russian / DTS-HD MA / 5.1 / 48 kHz / 1803 kbps / 16-bit (DTS Core: 5.1 48 kHz 1509 kbps 16-bit) |Нурмухаметов, Данис Василович|
Аудио 5: Russian / DTS-HD MA / 5.1 / 48 kHz / 1815 kbps / 16-bit (DTS Core: 5.1 48 kHz 1509 kbps 16-bit) |Сербин, Юрий Владимирович|
Аудио 6: Russian / DTS-HD MA / 5.1 / 48 kHz / 1829 kbps / 16-bit (DTS Core: 5.1 48 kHz 1509 kbps 16-bit) |Дольский, Андрей Игоревич|
Аудио 7: English / DTS-HD Master Audio / 5.1 / 48 kHz / 1794 kbps / 16-bit (DTS Core: 5.1 / 48 kHz / 1509 kbps / 16-bit) |Original|
Аудио 8: English / Dolby Digital Audio / 2.0 / 48 kHz / 192 kbps / DN -4dB / Dolby Surround |Commentary with Director Michael Campus & Thomas Kinkade|
Формат субтитров: softsub (SRT)

MediaInfo

Общее
Уникальный идентификатор : 224351038887127706859524258897284492277 (0xA8C87039FAFA6DCA9E23219957C6EBF5)
Полное имя : E:\MOVIE\Thomas Kinkade & Peter O'Toole\Christmas Cottage_2008г\Christmas Cottage_2008г_ Thomas Kinkade & Peter O'Toole.mkv
Формат : Matroska
Версия формата : Version 4 / Version 2
Размер файла : 22,6 Гбайт
Продолжительность : 1 ч. 44 м.
Режим общего битрейта : Переменный
Общий поток : 31,0 Мбит/сек
Название фильма : Christmas Cottage_2008г_ Thomas Kinkade & Peter O'Toole
Дата кодирования : UTC 2015-02-02 20:01:19
Программа кодирования : mkvmerge v6.9.1 ('Blue Panther') 64bit built on Apr 18 2014 18:23:38
Библиотека кодирования : libebml v1.3.0 + libmatroska v1.4.1
Видео
Идентификатор : 1
Формат : AVC
Формат/Информация : Advanced Video Codec
Профиль формата : High@L4.1
Параметр CABAC формата : Да
Параметр ReFrames формата : 4 кадра
Идентификатор кодека : V_MPEG4/ISO/AVC
Продолжительность : 1 ч. 44 м.
Вид битрейта : Переменный
Максимальный битрейт : 30,0 Мбит/сек
Ширина : 1920 пикселей
Высота : 1080 пикселей
Соотношение сторон : 16:9
Режим частоты кадров : Постоянный
Частота кадров : 23,976 кадра/сек
Стандарт вещания : NTSC
Цветовое пространство : YUV
Субдискретизация насыщенности : 4:2:0
Битовая глубина : 8 бит
Тип развёртки : Прогрессивная
Заголовок : Christmas Cottage_2008г_ Thomas Kinkade & Peter O'Toole
Язык : English
Default : Да
Forced : Нет
Основные цвета : BT.709
Характеристики трансфера : BT.709
Коэффициенты матрицы : BT.709
Аудио #1
Идентификатор : 2
Формат : AC-3
Формат/Информация : Audio Coding 3
Расширение режима : CM (complete main)
Параметр Endianness формата : Big
Идентификатор кодека : A_AC3
Продолжительность : 1 ч. 44 м.
Вид битрейта : Постоянный
Битрейт : 448 Кбит/сек
Каналы : 6 каналов
Расположение каналов : Front: L C R, Side: L R, LFE
Частота : 48,0 КГц
Битовая глубина : 16 бит
Метод сжатия : С потерями
Размер потока : 334 Мбайт (1%)
Заголовок : |MVO, R5|
Язык : Russian
Default : Да
Forced : Нет
Аудио #2
Идентификатор : 3
Формат : AC-3
Формат/Информация : Audio Coding 3
Расширение режима : CM (complete main)
Параметр Endianness формата : Big
Идентификатор кодека : A_AC3
Продолжительность : 1 ч. 44 м.
Вид битрейта : Постоянный
Битрейт : 448 Кбит/сек
Каналы : 6 каналов
Расположение каналов : Front: L C R, Side: L R, LFE
Частота : 48,0 КГц
Битовая глубина : 16 бит
Метод сжатия : С потерями
Размер потока : 334 Мбайт (1%)
Заголовок : |DVO, InterFilm|
Язык : Russian
Default : Нет
Forced : Нет
Аудио #3
Идентификатор : 4
Формат : DTS
Формат/Информация : Digital Theater Systems
Профиль формата : MA / Core
Режим : 16
Параметр Endianness формата : Big
Идентификатор кодека : A_DTS
Продолжительность : 1 ч. 44 м.
Вид битрейта : Переменный
Битрейт : Неизвестно / 1509 Кбит/сек
Каналы : 6 каналов
Расположение каналов : Front: L C R, Side: L R, LFE
Частота : 48,0 КГц
Битовая глубина : 16 бит
Метод сжатия : Без потерь / Lossy
Заголовок : |Замез, Вячеслав|
Язык : Russian
Default : Нет
Forced : Нет
Аудио #4
Идентификатор : 5
Формат : DTS
Формат/Информация : Digital Theater Systems
Профиль формата : MA / Core
Режим : 16
Параметр Endianness формата : Big
Идентификатор кодека : A_DTS
Продолжительность : 1 ч. 44 м.
Вид битрейта : Переменный
Битрейт : Неизвестно / 1509 Кбит/сек
Каналы : 6 каналов
Расположение каналов : Front: L C R, Side: L R, LFE
Частота : 48,0 КГц
Битовая глубина : 16 бит
Метод сжатия : Без потерь / Lossy
Заголовок : |Нурмухаметов, Данис Василович|
Язык : Russian
Default : Нет
Forced : Нет
Аудио #5
Идентификатор : 6
Формат : DTS
Формат/Информация : Digital Theater Systems
Профиль формата : MA / Core
Режим : 16
Параметр Endianness формата : Big
Идентификатор кодека : A_DTS
Продолжительность : 1 ч. 44 м.
Вид битрейта : Переменный
Битрейт : Неизвестно / 1509 Кбит/сек
Каналы : 6 каналов
Расположение каналов : Front: L C R, Side: L R, LFE
Частота : 48,0 КГц
Битовая глубина : 16 бит
Метод сжатия : Без потерь / Lossy
Заголовок : |Сербин, Юрий Владимирович|
Язык : Russian
Default : Нет
Forced : Нет
Аудио #6
Идентификатор : 7
Формат : DTS
Формат/Информация : Digital Theater Systems
Профиль формата : MA / Core
Режим : 16
Параметр Endianness формата : Big
Идентификатор кодека : A_DTS
Продолжительность : 1 ч. 44 м.
Вид битрейта : Переменный
Битрейт : Неизвестно / 1509 Кбит/сек
Каналы : 6 каналов
Расположение каналов : Front: L C R, Side: L R, LFE
Частота : 48,0 КГц
Битовая глубина : 16 бит
Метод сжатия : Без потерь / Lossy
Заголовок : |Дольский, Андрей Игоревич|
Язык : Russian
Default : Нет
Forced : Нет
Аудио #7
Идентификатор : 8
Формат : DTS
Формат/Информация : Digital Theater Systems
Профиль формата : MA / Core
Режим : 16
Параметр Endianness формата : Big
Идентификатор кодека : A_DTS
Продолжительность : 1 ч. 44 м.
Вид битрейта : Переменный
Битрейт : Неизвестно / 1509 Кбит/сек
Каналы : 6 каналов
Расположение каналов : Front: L C R, Side: L R, LFE
Частота : 48,0 КГц
Битовая глубина : 16 бит
Метод сжатия : Без потерь / Lossy
Заголовок : |ORIGINAL|
Язык : English
Default : Нет
Forced : Нет
Аудио #8
Идентификатор : 9
Формат : AC-3
Формат/Информация : Audio Coding 3
Профиль формата : Dolby Digital
Расширение режима : CM (complete main)
Параметр Endianness формата : Big
Идентификатор кодека : A_AC3
Продолжительность : 1 ч. 44 м.
Вид битрейта : Постоянный
Битрейт : 192 Кбит/сек
Каналы : 2 канала
Расположение каналов : Front: L R
Частота : 48,0 КГц
Битовая глубина : 16 бит
Метод сжатия : С потерями
Размер потока : 143 Мбайт (1%)
Заголовок : |Commentary with Director Michael Campus & Thomas Kinkade|
Язык : English
Default : Нет
Forced : Нет
Текст #1
Идентификатор : 10
Формат : UTF-8
Идентификатор кодека : S_TEXT/UTF8
Идентификатор кодека/Информация : UTF-8 Plain Text
Заголовок : full
Язык : Russian
Default : Нет
Forced : Нет
Текст #2
Идентификатор : 11
Формат : UTF-8
Идентификатор кодека : S_TEXT/UTF8
Идентификатор кодека/Информация : UTF-8 Plain Text
Заголовок : full
Язык : English
Default : Нет
Forced : Нет
Текст #3
Идентификатор : 12
Формат : UTF-8
Идентификатор кодека : S_TEXT/UTF8
Идентификатор кодека/Информация : UTF-8 Plain Text
Заголовок : _SDH_full
Язык : English
Default : Нет
Forced : Нет
Меню
00:00:00.000 : en:1. Home
00:09:14.554 : en:2. Foreclosure
00:18:07.295 : en:3. Work
00:26:48.607 : en:4. Stay
00:34:43.290 : en:5. Memorable
00:43:23.601 : en:6. Unfinished
00:50:35.032 : en:7. Short
01:00:13.610 : en:8. Tree Lighting
01:10:19.215 : en:9. Pageant
01:17:44.743 : en:10. The Light
01:24:37.698 : en:11. Miracles
01:36:08.179 : en:12. End Credits

Скриншоты


Цитата:
Цитата:

все спасибо уходят этим людямЗа _[USA_EDITION]_ огромное спасибо HPotter.За работу над сабами спасибо огромное MooN_WalkeR.

_________________
Показать сообщения:    

Текущее время: Сегодня 18:22

Часовой пояс: GMT



Вы не можете начинать темы
Вы не можете отвечать на сообщения
Вы не можете редактировать свои сообщения
Вы не можете удалять свои сообщения
Вы не можете голосовать в опросах
Вы не можете прикреплять файлы к сообщениям
Вы не можете скачивать файлы