Важное объявление!
У Нас Все раздачи мультитрекерные, при нуле пиров в релизах, можете смело вставать на закачку!
 
Автор Сообщение

HUNTER

Стаж:
4 года 4 месяца
Сообщений:
56755

Репутация: 101

[+] [-]
Вне форума [Профиль] [ЛС]

РогаHorns«Каждый демон - бывший ангел»-
Страна: США, Канада
Жанр: фэнтези, триллер, драма, ужасы
Год выпуска: 2013
Продолжительность: 01:59:55-Перевод №1: Любительский (?) (двухголосый) Пиратская студия
Перевод №2: Одноголосый (закадровый) Матвеев Алексей
Субтитры: русские (MartinaG), русские, английские, английские (SDH)
Режиссер: Александр Ажа / Alexandre Aja
В ролях: Джуно Темпл, Дэниэл Рэдклифф, Хезер Грэм, Сабрина Карпентер, Келли Гарнер, Джо Андерсон, Макс Мингелла, Джеймс Римар, Дэвид Морс, Кэтлин Куинлен-Описание: История простого американского парня по имени Иг Перриш, который просыпается рано утром с диким похмельем и обнаруживает, что у него на голове выросли настоящие рога.
Вместе с рогами у героя появляется еще одно дьявольское качество: в присутствии Перриша люди начинают говорить то, что думают на самом деле, и все грязные секреты оказываются на поверхности. Теперь Иг может узнать, кто на самом деле убил его девушку, поскольку в этом преступлении обвиняют его самого, хоть и бездоказательно.-
MPAA: R - Лицам до 17 лет обязательно присутствие взрослого-Качество: BDRip (E76)
Контейнер: MKV
Видео: 1920x804, 12707 kbps, 23,976 fps
Аудио №1: русский / AC3 / 5.1 / 48 kHz / 384 kbps |Пиратская студия|
Аудио №2: русский / DTS / 5.1 / 48 kHz / 1509 kbps |Мавеев|
Аудио №3: английский / DTS / 5.1 / 48 kHz / 1509 kbps
Субтитры: русские (MartinaG), русские, английские, английские (SDH)-Внимание! В дорожке №2 присутствует ненормативная лексика.

Скриншоты





Media Info

General
Unique ID : 218767965792011278059313380008735218424 (0xA4952D7872DFB1728F8FBEF9652B1AF8)
Complete name : D:\Horns.2013.1080p.BluRay.2xRus.Eng-E76.mkv
Format : Matroska
Format version : Version 4 / Version 2
File size : 13.5 GiB
Duration : 1h 59mn
Overall bit rate : 16.1 Mbps
Movie name : Horns (2013) - - Release by SbR
Encoded date : UTC 2015-06-13 12:54:40
Writing application : mkvmerge v7.9.0 ('Birds') 64bit
Writing library : libebml v1.3.1 + libmatroska v1.4.2
Attachment : Yes
Video
ID : 1
Format : AVC
Format/Info : Advanced Video Codec
Format profile : High@L4.1
Format settings, CABAC : Yes
Format settings, ReFrames : 4 frames
Codec ID : V_MPEG4/ISO/AVC
Duration : 1h 59mn
Bit rate : 12.4 Mbps
Width : 1 920 pixels
Height : 804 pixels
Display aspect ratio : 2.40:1
Frame rate : 23.976 fps
Color space : YUV
Chroma subsampling : 4:2:0
Bit depth : 8 bits
Scan type : Progressive
Bits/(Pixel*Frame) : 0.334
Stream size : 10.4 GiB (77%)
Writing library : x264 core 142 r2491kMod 24e4fed
Encoding settings : cabac=1 / ref=4 / deblock=1:-3:-3 / analyse=0x3:0x113 / me=umh / subme=11 / psy=1 / fade_compensate=0.00 / psy_rd=1.00:0.00 / mixed_ref=1 / me_range=32 / chroma_me=1 / trellis=2 / 8x8dct=1 / cqm=0 / deadzone=21,11 / fast_pskip=1 / chroma_qp_offset=-2 / threads=6 / lookahead_threads=1 / sliced_threads=0 / nr=0 / decimate=1 / interlaced=0 / bluray_compat=0 / constrained_intra=0 / fgo=0 / bframes=8 / b_pyramid=2 / b_adapt=2 / b_bias=0 / direct=1 / weightb=1 / open_gop=0 / weightp=2 / keyint=240 / keyint_min=23 / scenecut=40 / intra_refresh=0 / rc_lookahead=120 / rc=crf / mbtree=1 / crf=15.5000 / qcomp=0.70 / qpmin=0 / qpmax=69 / qpstep=4 / vbv_maxrate=62500 / vbv_bufsize=78125 / crf_max=0.0 / nal_hrd=none / filler=0 / ip_ratio=1.40 / aq=1:1.00
Language : English
Default : Yes
Forced : No
Matrix coefficients : BT.709-5, BT.1361, IEC 61966-2-4 709, SMPTE RP177
Audio #1
ID : 2
Format : AC-3
Format/Info : Audio Coding 3
Mode extension : CM (complete main)
Codec ID : A_AC3
Duration : 1h 59mn
Bit rate mode : Constant
Bit rate : 384 Kbps
Channel(s) : 6 channels
Channel positions : Front: L C R, Side: L R, LFE
Sampling rate : 48.0 KHz
Bit depth : 16 bits
Compression mode : Lossy
Stream size : 329 MiB (2%)
Title : Двухголосый
Language : Russian
Default : Yes
Forced : No
Audio #2
ID : 3
Format : DTS
Format/Info : Digital Theater Systems
Codec ID : A_DTS
Duration : 1h 59mn
Bit rate mode : Constant
Bit rate : 1 510 Kbps
Channel(s) : 6 channels
Channel positions : Front: L C R, Side: L R, LFE
Sampling rate : 48.0 KHz
Bit depth : 24 bits
Compression mode : Lossy
Stream size : 1.26 GiB (9%)
Title : Матвеев
Language : Russian
Default : No
Forced : No
Audio #3
ID : 4
Format : DTS
Format/Info : Digital Theater Systems
Codec ID : A_DTS
Duration : 1h 59mn
Bit rate mode : Constant
Bit rate : 1 510 Kbps
Channel(s) : 6 channels
Channel positions : Front: L C R, Side: L R, LFE
Sampling rate : 48.0 KHz
Bit depth : 24 bits
Compression mode : Lossy
Stream size : 1.26 GiB (9%)
Language : English
Default : No
Forced : No
Text #1
ID : 5
Format : UTF-8
Codec ID : S_TEXT/UTF8
Codec ID/Info : UTF-8 Plain Text
Title : MartinaG
Language : Russian
Default : No
Forced : No
Text #2
ID : 6
Format : UTF-8
Codec ID : S_TEXT/UTF8
Codec ID/Info : UTF-8 Plain Text
Language : Russian
Default : No
Forced : No
Text #3
ID : 7
Format : UTF-8
Codec ID : S_TEXT/UTF8
Codec ID/Info : UTF-8 Plain Text
Language : English
Default : No
Forced : No
Text #4
ID : 8
Format : UTF-8
Codec ID : S_TEXT/UTF8
Codec ID/Info : UTF-8 Plain Text
Title : SDH
Language : English
Default : No
Forced : No
Menu
00:00:00.000 : en:00:00:00.000
00:05:01.551 : en:00:05:01.551
00:13:51.205 : en:00:13:51.205
00:18:19.640 : en:00:18:19.640
00:23:42.796 : en:00:23:42.796
00:29:14.169 : en:00:29:14.169
00:36:15.465 : en:00:36:15.465
00:43:39.659 : en:00:43:39.659
00:48:22.358 : en:00:48:22.358
00:53:12.981 : en:00:53:12.981
00:58:10.612 : en:00:58:10.612
01:05:06.111 : en:01:05:06.111
01:12:16.374 : en:01:12:16.374
01:15:58.179 : en:01:15:58.179
01:22:32.197 : en:01:22:32.197
01:26:56.795 : en:01:26:56.795
01:33:51.000 : en:01:33:51.000
01:38:29.195 : en:01:38:29.195
01:43:39.213 : en:01:43:39.213
01:54:02.127 : en:01:54:02.127

xlog

x264 [info]: frame I:1433 Avg QP:11.51 size:301464
x264 [info]: frame P:35133 Avg QP:14.92 size:115543
x264 [info]: frame B:135947 Avg QP:16.63 size: 51035
x264 [info]: consecutive B-frames: 1.6% 2.7% 3.6% 21.9% 15.5% 37.0% 8.6% 7.6% 1.6%
x264 [info]: kb/s:12707.80

Сэмпл

Скачать

_________________
Показать сообщения:    

Текущее время: Сегодня 14:12

Часовой пояс: GMT



Вы не можете начинать темы
Вы не можете отвечать на сообщения
Вы не можете редактировать свои сообщения
Вы не можете удалять свои сообщения
Вы не можете голосовать в опросах
Вы не можете прикреплять файлы к сообщениям
Вы не можете скачивать файлы