Важное объявление!
У Нас Все раздачи мультитрекерные, при нуле пиров в релизах, можете смело вставать на закачку!
 
Автор Сообщение

HUNTER

Стаж:
4 года 4 месяца
Сообщений:
56783

Репутация: 101

[+] [-]
Вне форума [Профиль] [ЛС]

-Робот по имени Чаппи / Chappie«I am discovery. I am wonder. I am chappie»
Страна: США, Мексика, ЮАР
Студия: Alpha Core, Columbia Pictures, Genre Films, LStar Capital, Media Rights Capital, Ollin Studio, Simon Kinberg Productions, Sony Pictures Entertainment (SPE)
Жанр: фантастика, боевик, триллер
Год выпуска: 2015
Продолжительность: 02:00:19-Перевод: Профессиональный (полное дублирование) iTunes
Оригинальная аудиодорожка: английская
Cубтитры: русские, украинские, английские
Режиссер: Нил Бломкамп / Neill Blomkamp
В ролях: Шарлто Копли, Дев Патель, Ниндзя, Йоланди Фиссер, Хосе Пабло Кантильо, Хью Джекман, Сигурни Уивер, Брэндон Оре, Джонни Селема, Андерсон Купер
Описание: Чаппи - вундеркинд. Как и любой другой ребенок, он попадает под влияние своего окружения, и только его сердце и душа помогут ему найти свой путь. Но есть одна вещь, которая делает Чаппи непохожим на всех остальных: он – первый робот, способный чувствовать и думать.-
Сэмпл: скачать-Автор рипа: Elheym
Качество: BDRip 720p (источник: / Blu-ray Remux [CHAPPIE_REMUX_HDCLUB] / 1080p)
Контейнер: MKV
Видео: 1280x534 (2.40:1), 23.976 fps, MPEG-4 AVC, ~4800 kbps avg, 0.293 bit/pixel
Аудио #1: Русский: AC3, 5.1, 48 kHz, ~384 Кбит/с | Профессиональный (полное дублирование), iTunes |
Аудио #2: Украинский: АС3, 2.0, 48 kHz, ~192 Кбит/с | Профессиональный (полное дублирование), iTunes |
Аудио #3: Английский: DTS, 5.1, 48 kHz, ~1509 Кбит/с | Оригинал |
Субтитры: русские (полные, форсированные), украинские (полные), английские (полные х2, SDH, SDH цветные)
Главы: Присутствуют, сохранены оригинальные

MediaInfo

Уникальный идентификатор : 189270644101558400469070196813042503297 (0x8E64333A34192C0D9BB5DA9023F74E81)
Полное имя : Chappie.2015.720p.BluRay.Rus.Ukr.Eng.mkv
Формат : Matroska
Версия формата : Version 2
Размер файла : 5,79 Гбайт
Продолжительность : 2 ч. 0 м.
Общий поток : 6883 Кбит/сек
Название фильма : Робот по имени Чаппи / Chappie (2015) BDRip 720p by Elheym
Дата кодирования : UTC 2015-06-02 17:40:04
Программа кодирования : mkvmerge v5.2.0 ('I can't explain') built on Dec 18 2011 18:12:03
Библиотека кодирования : libebml v1.2.3 + libmatroska v1.3.0
Attachements : Cover.jpg
Видео
Идентификатор : 1
Формат : AVC
Формат/Информация : Advanced Video Codec
Профиль формата : High@L4.1
Параметр CABAC формата : Да
Параметр ReFrames формата : 11 кадров
Идентификатор кодека : V_MPEG4/ISO/AVC
Продолжительность : 2 ч. 0 м.
Битрейт : 4800 Кбит/сек
Ширина : 1280 пикселей
Высота : 534 пикселя
Соотношение сторон : 2,40:1
Режим частоты кадров : Постоянный
Частота кадров : 23,976 кадра/сек
Цветовое пространство : YUV
Субдискретизация насыщенности : 4:2:0
Битовая глубина : 8 бит
Тип развёртки : Прогрессивная
Бит/(Пиксели*Кадры) : 0.293
Размер потока : 3,92 Гбайт (68%)
Заголовок : Робот по имени Чаппи / Chappie (2015) BDRip 720p by Elheym
Библиотека кодирования : x264 core 146 r0+2586 e393126 t_mod_Custom [8-bit@all X86_64]
Настройки программы : cabac=1 / ref=11 / deblock=1:-2:-2 / analyse=0x3:0x113 / me=umh / subme=11 / psy=1 / fade_compensate=0.00 / psy_rd=1.10:0.00 / mixed_ref=1 / me_range=32 / chroma_me=1 / trellis=2 / 8x8dct=1 / cqm=0 / deadzone=21,11 / fast_pskip=0 / chroma_qp_offset=-2 / threads=6 / lookahead_threads=2 / sliced_threads=0 / nr=0 / decimate=0 / interlaced=0 / bluray_compat=0 / constrained_intra=0 / fgo=0 / bframes=16 / b_pyramid=2 / b_adapt=2 / b_bias=0 / direct=3 / weightb=1 / open_gop=0 / weightp=2 / keyint=230 / keyint_min=23 / scenecut=40 / intra_refresh=0 / rc_lookahead=80 / rc=2pass / mbtree=0 / bitrate=4800 / ratetol=1.0 / qcomp=0.85 / qpmin=0:0:0 / qpmax=69:69:69 / qpstep=4 / cplxblur=20.0 / qblur=0.5 / vbv_maxrate=50000 / vbv_bufsize=62500 / nal_hrd=none / filler=0 / ip_ratio=1.40 / pb_ratio=1.30 / aq=2:0.50 / aq-sensitivity=15.00 / aq-factor=1.00:1.00:1.00 / aq2=0 / aq3=0 / zones=74886,81644,b=1.14/162627,173079,b=0.25
Язык : English
Default : Да
Forced : Нет
Аудио #1
Идентификатор : 2
Формат : AC-3
Формат/Информация : Audio Coding 3
Расширение режима : CM (complete main)
Параметр Endianness формата : Big
Идентификатор кодека : A_AC3
Продолжительность : 2 ч. 0 м.
Вид битрейта : Постоянный
Битрейт : 384 Кбит/сек
Каналы : 6 каналов
Расположение каналов : Front: L C R, Side: L R, LFE
Частота : 48,0 КГц
Метод сжатия : С потерями
Размер потока : 330 Мбайт (6%)
Заголовок : АС3 5.1 @ 384 kbps - Dub, iTunes
Язык : Russian
Default : Нет
Forced : Нет
Аудио #2
Идентификатор : 3
Формат : AC-3
Формат/Информация : Audio Coding 3
Расширение режима : CM (complete main)
Параметр Endianness формата : Big
Идентификатор кодека : A_AC3
Продолжительность : 2 ч. 0 м.
Вид битрейта : Постоянный
Битрейт : 192 Кбит/сек
Каналы : 2 канала
Расположение каналов : Front: L R
Частота : 48,0 КГц
Метод сжатия : С потерями
Размер потока : 165 Мбайт (3%)
Заголовок : АС3 2.0 @ 192 kbps - Dub, iTunes
Язык : Ukrainian
Default : Нет
Forced : Нет
Аудио #3
Идентификатор : 4
Формат : DTS
Формат/Информация : Digital Theater Systems
Режим : 16
Параметр Endianness формата : Big
Идентификатор кодека : A_DTS
Продолжительность : 2 ч. 0 м.
Вид битрейта : Постоянный
Битрейт : 1509 Кбит/сек
Каналы : 6 каналов
Расположение каналов : Front: L C R, Side: L R, LFE
Частота : 48,0 КГц
Битовая глубина : 24 бит
Метод сжатия : С потерями
Размер потока : 1,27 Гбайт (22%)
Заголовок : DTS 5.1 @ 1509 kbps - Original
Язык : English
Default : Нет
Forced : Нет
Текст #1
Идентификатор : 5
Формат : UTF-8
Идентификатор кодека : S_TEXT/UTF8
Идентификатор кодека/Информация : UTF-8 Plain Text
Заголовок : Full
Язык : Russian
Default : Нет
Forced : Нет
Текст #2
Идентификатор : 6
Формат : UTF-8
Идентификатор кодека : S_TEXT/UTF8
Идентификатор кодека/Информация : UTF-8 Plain Text
Заголовок : Forced
Язык : Russian
Default : Да
Forced : Нет
Текст #3
Идентификатор : 7
Формат : UTF-8
Идентификатор кодека : S_TEXT/UTF8
Идентификатор кодека/Информация : UTF-8 Plain Text
Заголовок : Full
Язык : Ukrainian
Default : Нет
Forced : Нет
Текст #4
Идентификатор : 8
Формат : UTF-8
Идентификатор кодека : S_TEXT/UTF8
Идентификатор кодека/Информация : UTF-8 Plain Text
Заголовок : Full v.1
Язык : English
Default : Нет
Forced : Нет
Текст #5
Идентификатор : 9
Формат : UTF-8
Идентификатор кодека : S_TEXT/UTF8
Идентификатор кодека/Информация : UTF-8 Plain Text
Заголовок : Full v.2
Язык : English
Default : Нет
Forced : Нет
Текст #6
Идентификатор : 10
Формат : UTF-8
Идентификатор кодека : S_TEXT/UTF8
Идентификатор кодека/Информация : UTF-8 Plain Text
Заголовок : Full SDH
Язык : English
Default : Нет
Forced : Нет
Текст #7
Идентификатор : 11
Формат : UTF-8
Идентификатор кодека : S_TEXT/UTF8
Идентификатор кодека/Информация : UTF-8 Plain Text
Заголовок : Full SDH Colored
Язык : English
Default : Нет
Forced : Нет
Меню
00:00:00.000 : :Chapter 01
00:03:37.008 : :Chapter 02
00:09:55.260 : :Chapter 03
00:13:50.495 : :Chapter 04
00:21:53.644 : :Chapter 05
00:31:17.541 : :Chapter 06
00:37:19.319 : :Chapter 07
00:46:58.730 : :Chapter 08
00:54:36.690 : :Chapter 09
01:06:12.927 : :Chapter 10
01:09:57.649 : :Chapter 11
01:16:48.394 : :Chapter 12
01:24:59.550 : :Chapter 13
01:31:35.197 : :Chapter 14
01:42:36.942 : :Chapter 15
01:50:03.595 : :Chapter 16

x264 log

x264 [info]: frame I:1453 Avg QP:14.40 size:126696
x264 [info]: frame P:43352 Avg QP:17.25 size: 46566
x264 [info]: frame B:128275 Avg QP:19.42 size: 16560
x264 [info]: consecutive B-frames: 3.2% 4.8% 9.6% 37.7% 16.0% 20.6% 3.7% 2.9% 0.6% 0.3% 0.1% 0.4% 0.1% 0.0% 0.0% 0.0% 0.0%
x264 [info]: ref P L0: 48.8% 10.6% 16.5% 6.3% 5.3% 3.5% 3.0% 1.7% 1.5% 1.3% 1.3% 0.2% 0.0%
x264 [info]: ref B L0: 79.0% 10.2% 4.2% 2.0% 1.6% 1.2% 0.8% 0.5% 0.3% 0.2%
x264 [info]: ref B L1: 93.8% 6.2%

Скриншоты

Сравнения с исходником

Источник- -Рип-

_________________
Показать сообщения:    

Текущее время: Сегодня 22:12

Часовой пояс: GMT



Вы не можете начинать темы
Вы не можете отвечать на сообщения
Вы не можете редактировать свои сообщения
Вы не можете удалять свои сообщения
Вы не можете голосовать в опросах
Вы не можете прикреплять файлы к сообщениям
Вы не можете скачивать файлы