Важное объявление!
У Нас Все раздачи мультитрекерные, при нуле пиров в релизах, можете смело вставать на закачку!
 
Автор Сообщение

HUNTER

Стаж:
4 года 4 месяца
Сообщений:
56809

Репутация: 101

[+] [-]
Вне форума [Профиль] [ЛС]

Робокоп / Robocop / Fullscreen
Страна: США
Жанр: Фантастика, Боевик
Год выпуска: 1987
Продолжительность: 1:38:18
Перевод: Профессиональный (многоголосый закадровый) СТС
Cубтитры: нет
Оригинальная аудиодорожка: нет
Режиссер: Пол Верховен / Paul Verhoeven
В ролях: Питер Уэллер, Нэнси Аллен, Фелтон Перри, Мигель Феррер, Рэй Уайз, Роберт До Ки, Ронни Кокс, Кертвуд Смит, Дэниэл О'Херлихи
Описание: После гибели одного из лучших полицейских врачи-экспериментаторы создают из него неуязвимого киборга Робокопа, который в одиночку борется с бандой преступников. Однако прочная броня не спасает Робокопа от мучительных, обрывочных воспоминаний о прошлом: он постоянно видит кошмарные сны, в которых погибает от руки жестоких преступников. Теперь он ждет не только правосудия,… но и жаждет мести!
Доп. информация: Здесь раздается полноэкранная версия фильма [4:3] , смотрим сравнения с BD, качаем сэмпл. За рип с IPTV спасибо miha2154, мной были "вылечены" битые места (почти все), удалена наложенная реклама и вставлены вырезанные сцены (с черными полосами). Все ещё остались значки "18+" Рип не идеален! И предназначен в первую очередь любителям фильма и коллекционерам Fullscreen / Open Matte версий фильмов
Сэмпл: http://multi-up.com/1035894
Качество видео: TVRip
Формат видео: AVI
Видео: 720x544 (1.33:1), 25 fps, XviD build 65 ~1800kbps
Аудио: 48kHz, AC3 Dolby Digital, 2/0 (L,R), ~192kbps (стс)

MediaInfo

General
Complete name : F:\TORRENT\Robocop 1-2-3 Fullscreen\Robocop 1 (1987) Fullscreen.avi
Format : AVI
Format/Info : Audio Video Interleave
File size : 1.38 GiB
Duration : 1h 38mn
Overall bit rate : 2 002 Kbps
Writing application : VirtualDubMod 1.5.10.3
Writing library : VirtualDubMod build 2550/release
Video
ID : 0
Format : MPEG-4 Visual
Format profile : Advanced Simple@L5
Format settings, BVOP : Yes
Format settings, QPel : No
Format settings, GMC : No warppoints
Format settings, Matrix : Default (MPEG)
Codec ID : XVID
Codec ID/Hint : XviD
Duration : 1h 38mn
Bit rate : 1 801 Kbps
Width : 720 pixels
Height : 544 pixels
Display aspect ratio : 4:3
Frame rate : 25.000 fps
Resolution : 8 bits
Colorimetry : 4:2:0
Scan type : Progressive
Bits/(Pixel*Frame) : 0.184
Stream size : 1.24 GiB (90%)
Writing library : XviD 65
Audio
ID : 1
Format : AC-3
Format/Info : Audio Coding 3
Codec ID : 2000
Duration : 1h 38mn
Bit rate mode : Constant
Bit rate : 192 Kbps
Channel(s) : 2 channels
Channel positions : L R
Sampling rate : 48.0 KHz
Stream size : 135 MiB (10%)
Alignment : Split accross interleaves
Interleave, duration : 40 ms (1.00 video frame)
Interleave, preload duration : 500 ms

Скриншот c названием фильма

Скриншоты


Сравнения с widescreen

http://screenshotcomparison.com/comparison/114004/picture:0
сравнения с DVD и BD




-
-Робокоп 2 / Robocop 2 / Fullscreen
Страна: США
Жанр: Фантастика, Боевик
Год выпуска: 1990
Продолжительность: 1:51:44
Перевод: Профессиональный (многоголосый закадровый) СТС
Cубтитры: нет
Оригинальная аудиодорожка: нет
Режиссер: Ирвин Кершнер / Irvin Kershner
В ролях: Питер Уэллер, Нэнси Аллен, Дэн О’Херлихи, Том Нунен, Белинда Бауэр, Гэбриел Дэймон, Джон Гловер, Марио Мачадо, Лиза Гиббонс, Джон Ингл
Описание: Робот - полицейский продолжает патрулировать улицы Детройта. На этот раз ему предстоит уничтожить фабрику, которая незаконно производит новый вид наркотиков, а также сразиться с роботом - убийцей, созданным в секретной лаборатории, чтобы убрать Робокопа.
Сэмпл: http://multi-up.com/1035939
Качество видео: TVRip
Формат видео: AVI
Видео: 720x544 (1.33:1), 25 fps, XviD build 65 ~1650kbps
Аудио: 48kHz, AC3 Dolby Digital, 2/0 (L,R), ~192kbps (стс)

MediaInfo

General
Complete name : F:\TORRENT\Robocop 1-2-3 Fullscreen\Robocop 2 (1990) Fullscreen.avi
Format : AVI
Format/Info : Audio Video Interleave
File size : 1.44 GiB
Duration : 1h 51mn
Overall bit rate : 1 850 Kbps
Writing application : VirtualDubMod 1.5.10.3
Writing library : VirtualDubMod build 2550/release
Video
ID : 0
Format : MPEG-4 Visual
Format profile : Advanced Simple@L5
Format settings, BVOP : Yes
Format settings, QPel : No
Format settings, GMC : No warppoints
Format settings, Matrix : Default (MPEG)
Codec ID : XVID
Codec ID/Hint : XviD
Duration : 1h 51mn
Bit rate : 1 649 Kbps
Width : 720 pixels
Height : 544 pixels
Display aspect ratio : 4:3
Frame rate : 25.000 fps
Resolution : 8 bits
Colorimetry : 4:2:0
Scan type : Progressive
Bits/(Pixel*Frame) : 0.168
Stream size : 1.29 GiB (89%)
Writing library : XviD 65
Audio
ID : 1
Format : AC-3
Format/Info : Audio Coding 3
Codec ID : 2000
Duration : 1h 51mn
Bit rate mode : Constant
Bit rate : 192 Kbps
Channel(s) : 2 channels
Channel positions : L R
Sampling rate : 48.0 KHz
Stream size : 153 MiB (10%)
Alignment : Split accross interleaves
Interleave, duration : 40 ms (1.00 video frame)
Interleave, preload duration : 500 ms

Скриншот c названием фильма

Скриншоты


Сравнения с widescreen

http://screenshotcomparison.com/comparison/114032/picture:0
сравнения с DVD и BD



-
-Робокоп 3 / Robocop 3 / Fullscreen
Страна: США
Жанр: Фантастика, Боевик
Год выпуска: 1993
Продолжительность: 1:40:27
Перевод: Профессиональный (многоголосый закадровый) СТС
Cубтитры: нет
Оригинальная аудиодорожка: нет
Режиссер: Фред Деккер / Fred Dekker
В ролях: Роберт Джон Бёрк,Марио Мачадо, Реми Райан, Джоди Лонг, Джон Пози, Рип Торн, Мако, Джон Кастл, С.Д. Немет, Эдит Айви
Описание: Могущественная корпорация, создавшая знаменитого Робота-полицейского, разрабатывает грандиозный проект по переустройству Детройта. Но его осуществлению препятствуют жители бедных кварталов, для которых не нашлось места в идеальном городе будущего.
Бесстрашный Робокоп оказывается между двух враждующих лагерей. Как собственность корпорации, он обязан подчиниться несправедливому приказу. Но как человек, Мёрфи должен встать на защиту повстанцев. Разрываясь между жестоким долгом и голосом сердца, Робот-полицейский попадает в самый эпицентр противостояния. Настало время сделать решающий выбор…
Сэмпл: http://multi-up.com/1035896
Качество видео: TVRip
Формат видео: AVI
Видео: 720x544 (1.33:1), 25 fps, XviD build 65 ~1780kbps
Аудио: 48kHz, AC3 Dolby Digital, 2/0 (L,R), ~192kbps (стс)

MediaInfo

General
Complete name : F:\TORRENT\Robocop 1-2-3 Fullscreen\Robocop 3 (1993) Fullscreen.avi
Format : AVI
Format/Info : Audio Video Interleave
File size : 1.39 GiB
Duration : 1h 40mn
Overall bit rate : 1 986 Kbps
Writing application : VirtualDubMod 1.5.10.3
Writing library : VirtualDubMod build 2550/release
Video
ID : 0
Format : MPEG-4 Visual
Format profile : Advanced Simple@L5
Format settings, BVOP : Yes
Format settings, QPel : No
Format settings, GMC : No warppoints
Format settings, Matrix : Default (MPEG)
Codec ID : XVID
Codec ID/Hint : XviD
Duration : 1h 40mn
Bit rate : 1 784 Kbps
Width : 720 pixels
Height : 544 pixels
Display aspect ratio : 4:3
Frame rate : 25.000 fps
Resolution : 8 bits
Colorimetry : 4:2:0
Scan type : Progressive
Bits/(Pixel*Frame) : 0.182
Stream size : 1.25 GiB (90%)
Writing library : XviD 65
Audio
ID : 1
Format : AC-3
Format/Info : Audio Coding 3
Codec ID : 2000
Duration : 1h 40mn
Bit rate mode : Constant
Bit rate : 192 Kbps
Channel(s) : 2 channels
Channel positions : L R
Sampling rate : 48.0 KHz
Stream size : 138 MiB (10%)
Alignment : Split accross interleaves
Interleave, duration : 40 ms (1.00 video frame)
Interleave, preload duration : 500 ms

Скриншот c названием фильма

Скриншоты


Сравнения с widescreen

http://screenshotcomparison.com/comparison/114038/picture:1
сравнения с DVD и BD



_________________
Показать сообщения:    

Текущее время: Сегодня 20:28

Часовой пояс: GMT



Вы не можете начинать темы
Вы не можете отвечать на сообщения
Вы не можете редактировать свои сообщения
Вы не можете удалять свои сообщения
Вы не можете голосовать в опросах
Вы не можете прикреплять файлы к сообщениям
Вы не можете скачивать файлы