Важное объявление!
У Нас Все раздачи мультитрекерные, при нуле пиров в релизах, можете смело вставать на закачку!
 
Автор Сообщение

HUNTER

Стаж:
4 года 4 месяца
Сообщений:
56772

Репутация: 101

[+] [-]
Вне форума [Профиль] [ЛС]

Риф Ларго / Ки-Ларго / Key Largo-
Год выпуска: 1948
Страна: США
Жанр: триллер, драма, фильм-нуар
Продолжительность: 01:40:24
Перевод 1: Профессиональный (двухголосый закадровый) НТВ+
Перевод 2: Профессиональный (многоголосый закадровый) Film Prestige
Перевод 3: Профессиональный (многоголосый закадровый) Светла
Оригинальная аудиодорожка: Английская
Cубтитры: Русские (R5), английские (полные, для слабослышащих), французские-Режиссер: Джон Хьюстон / John Huston
В ролях: Хамфри Богарт, Эдвард Дж. Робинсон, Лоурен Бэколл, Лайонел Бэрримор, Клер Тревор, Томас Гомез, Гарри Льюис, Джон Родни, Марк Лоуренс, Дэн Сеймур.-Описание:
Горстка людей, укрывшихся от тропического шторма в маленькой прибрежной гостинице, оказывается в заложниках у банды преступников. Их главарь давно разыскивается федеральными властями. Его главная цель - бежать из страны как можно быстрее. И он не остановится ни перед чем, чтобы ее добиться. Как поведут себя люди, оказавшись в необычной для них критической ситуации?- | IMDb | Сэмпл-Качество: BDRip 720p (mfcorrea)
Контейнер: MKV
Видео: x264, 986x720 (1.37:1), 23.976 fps, 5960 kbps
Аудио 1: Русский AC3 2.0, 48 kHz, 192 kbps — НТВ+
Аудио 2: Русский AC3 2.0, 48 kHz, 192 kbps — Film Prestige
Аудио 3: Русский AC3 2.0, 48 kHz, 192 kbps — Светла
Аудио 4: Английский AC3 2.0, 48 kHz, 640 kbps
Формат субтитров: softsub (SRT)

Скриншоты


MI

General
Unique ID : 245599984742899150370826846670011939026 (0xB8C4D62495B59203B1388063950EB8D2)
Complete name : Key Largo.1948.720p.BluRay.AVC-mfcorrea.mkv
Format : Matroska
Format version : Version 2
File size : 5.04 GiB
Duration : 1h 40mn
Overall bit rate : 7 179 Kbps
Movie name : Key Largo / Риф Ларго (1948) – RuTracker
Encoded date : UTC 2016-03-03 18:21:40
Writing application : mkvmerge v8.3.0 ('Over the Horizon') 64bit
Writing library : libebml v1.3.1 + libmatroska v1.4.2
Attachements : cover.jpg
Video
ID : 1
Format : AVC
Format/Info : Advanced Video Codec
Format profile : High@L4.1
Format settings, CABAC : Yes
Format settings, ReFrames : 10 frames
Codec ID : V_MPEG4/ISO/AVC
Duration : 1h 40mn
Bit rate : 5 960 Kbps
Width : 986 pixels
Height : 720 pixels
Display aspect ratio : 4:3
Frame rate mode : Constant
Frame rate : 23.976 fps
Color space : YUV
Chroma subsampling : 4:2:0
Bit depth : 8 bits
Scan type : Progressive
Bits/(Pixel*Frame) : 0.350
Stream size : 4.08 GiB (81%)
Title : Key Largo.1948.720p.BluRay.AVC-mfcorrea
Writing library : x264 core 142 r2479 dd79a61
Encoding settings : cabac=1 / ref=10 / deblock=1:-3:-3 / analyse=0x3:0x133 / me=umh / subme=9 / psy=1 / psy_rd=1.00:0.00 / mixed_ref=1 / me_range=36 / chroma_me=1 / trellis=2 / 8x8dct=1 / cqm=0 / deadzone=21,11 / fast_pskip=0 / chroma_qp_offset=-2 / threads=18 / lookahead_threads=4 / sliced_threads=0 / nr=0 / decimate=1 / interlaced=0 / bluray_compat=0 / constrained_intra=0 / bframes=10 / b_pyramid=2 / b_adapt=2 / b_bias=0 / direct=3 / weightb=1 / open_gop=0 / weightp=2 / keyint=240 / keyint_min=24 / scenecut=40 / intra_refresh=0 / rc_lookahead=120 / rc=2pass / mbtree=1 / bitrate=5960 / ratetol=1.0 / qcomp=0.60 / qpmin=0 / qpmax=69 / qpstep=4 / cplxblur=20.0 / qblur=0.5 / vbv_maxrate=62500 / vbv_bufsize=78125 / nal_hrd=none / filler=0 / ip_ratio=1.40 / aq=1:1.00
Language : English
Default : Yes
Forced : No
Color primaries : BT.709
Transfer characteristics : BT.709
Matrix coefficients : BT.709
Color range : Limited
Audio #1
ID : 2
Format : AC-3
Format/Info : Audio Coding 3
Mode extension : CM (complete main)
Format settings, Endianness : Big
Codec ID : A_AC3
Duration : 1h 40mn
Bit rate mode : Constant
Bit rate : 192 Kbps
Channel(s) : 2 channels
Channel positions : Front: L R
Sampling rate : 48.0 KHz
Bit depth : 16 bits
Compression mode : Lossy
Stream size : 138 MiB (3%)
Title : DVO – НТВ+
Language : Russian
Default : Yes
Forced : No
Audio #2
ID : 3
Format : AC-3
Format/Info : Audio Coding 3
Mode extension : CM (complete main)
Format settings, Endianness : Big
Codec ID : A_AC3
Duration : 1h 40mn
Bit rate mode : Constant
Bit rate : 192 Kbps
Channel(s) : 2 channels
Channel positions : Front: L R
Sampling rate : 48.0 KHz
Bit depth : 16 bits
Compression mode : Lossy
Stream size : 138 MiB (3%)
Title : MVO – Film Prestige
Language : Russian
Default : No
Forced : No
Audio #3
ID : 4
Format : AC-3
Format/Info : Audio Coding 3
Mode extension : CM (complete main)
Format settings, Endianness : Big
Codec ID : A_AC3
Duration : 1h 40mn
Bit rate mode : Constant
Bit rate : 192 Kbps
Channel(s) : 2 channels
Channel positions : Front: L R
Sampling rate : 48.0 KHz
Bit depth : 16 bits
Compression mode : Lossy
Stream size : 138 MiB (3%)
Title : MVO – Светла
Language : Russian
Default : No
Forced : No
Audio #4
ID : 5
Format : AC-3
Format/Info : Audio Coding 3
Mode extension : CM (complete main)
Format settings, Endianness : Big
Codec ID : A_AC3
Duration : 1h 40mn
Bit rate mode : Constant
Bit rate : 640 Kbps
Channel(s) : 2 channels
Channel positions : Front: L R
Sampling rate : 48.0 KHz
Bit depth : 16 bits
Compression mode : Lossy
Stream size : 460 MiB (9%)
Title : Original
Language : English
Default : No
Forced : No
Text #1
ID : 6
Format : UTF-8
Codec ID : S_TEXT/UTF8
Codec ID/Info : UTF-8 Plain Text
Title : Film Prestige
Language : Russian
Default : No
Forced : No
Text #2
ID : 7
Format : UTF-8
Codec ID : S_TEXT/UTF8
Codec ID/Info : UTF-8 Plain Text
Title : iTunes
Language : Russian
Default : No
Forced : No
Text #3
ID : 8
Format : UTF-8
Codec ID : S_TEXT/UTF8
Codec ID/Info : UTF-8 Plain Text
Language : English
Default : No
Forced : No
Text #4
ID : 9
Format : UTF-8
Codec ID : S_TEXT/UTF8
Codec ID/Info : UTF-8 Plain Text
Title : SDH
Language : English
Default : No
Forced : No
Text #5
ID : 10
Format : UTF-8
Codec ID : S_TEXT/UTF8
Codec ID/Info : UTF-8 Plain Text
Language : French
Default : No
Forced : No
Menu
00:00:00.000 : en:01. Credits and Forward
00:01:35.053 : en:02. Largo Hospitality
00:03:52.232 : en:03. Can She Pick 'em?
00:06:23.842 : en:04. Temples and the Law
00:09:52.300 : en:05. Guest List
00:13:36.858 : en:06. Remembering George
00:17:12.823 : en:07. Receiving Royalty
00:22:08.035 : en:08. Big Blow on the Way
00:25:09.675 : en:09. Johnny Rocco
00:29:35.983 : en:10. Nobody Was As Big
00:32:08.176 : en:11. Ancient Evils, Ancient Ills
00:34:22.811 : en:12. At Razor's Edge
00:39:48.970 : en:13. Nora Reacts
00:40:56.371 : en:14. More
00:46:07.264 : en:15. Armed Stand-Off
00:47:26.802 : en:16. No Bullets
00:49:03.065 : en:17. A Coward
00:51:41.390 : en:18. A Dame Who's Drunk
00:54:32.144 : en:19. Moanin' Law
00:58:28.171 : en:20. The One on the Hill
01:02:07.599 : en:21. Storm Jitters
01:07:27.043 : en:22. An Invitation and an Order
01:11:27.533 : en:23. Benway Returns
01:13:46.047 : en:24. Framed
01:17:44.285 : en:25. Ziggy Arrives
01:21:46.151 : en:26. Frank's Decision
01:25:55.025 : en:27. Off to Sea
01:28:28.678 : en:28. Aboard Santana
01:30:50.362 : en:29. Frank Makes His Move
01:33:24.307 : en:30. One on One
01:35:36.606 : en:31. Mayday
01:37:50.531 : en:32. Coming Back

_________________
Показать сообщения:    

Текущее время: Сегодня 12:54

Часовой пояс: GMT



Вы не можете начинать темы
Вы не можете отвечать на сообщения
Вы не можете редактировать свои сообщения
Вы не можете удалять свои сообщения
Вы не можете голосовать в опросах
Вы не можете прикреплять файлы к сообщениям
Вы не можете скачивать файлы