Важное объявление!
У Нас Все раздачи мультитрекерные, при нуле пиров в релизах, можете смело вставать на закачку!
 
Автор Сообщение

HUNTER

Стаж:
4 года 4 месяца
Сообщений:
56722

Репутация: 101

[+] [-]
Вне форума [Профиль] [ЛС]

Рикардо и друзья. 1 сезон / Ricardo and friends. 1 sezon / 11 выпусков из ???
Страна: Канада
Тематика: ТВ-шоу, кулинария
Тип раздаваемого материала: Видеоурок
Продолжительность: ~ 00:22:30
Год выпуска: 2006
Язык: Русский
Перевод: Профессиональный (многоголосый, закадровый)
Описание: Рикардо путешествует по Квебеку, изучая особенности местной кухни и таких продуктов провинции как пиво, сыр, зелень, овощи и многих других. Используя многообразие ингредиентов, известный повар готовит разнообразные и необыкновенные блюда для друзей и членов своей семьи.
Релиз:
Tarjaa
Содержание:
01. Сегодня в выпуске: закуска с креветками, ризотто со спаржей, яблочный пирог.
02. Сегодня в выпуске: Хлебная запеканка с ромовым соусом, Савойская капуста с начинкой из трёх видов сыра, суп "Potage Choisy"
03. Сегодня в выпуске: Ножка ягнёнка с корнеплодами, Сырная нуга, Морковная панакота.
04. Сегодня в выпуске: Салат из крабов с клубникой, Ростбиф , Сливочное мороженое с клубникой.
05. Сегодня в выпуске: Цитрусовый салат, Двухцветное смузи, Клубный сэндвич, Оладьи с черничным соусом.
06. Сегодня в выпуске: Торшон фуа-гра, Курица фаршированная фуа-гра с лесными грибами, Обожженная вишня "Марелла"
07. Сегодня в выпуске: Крем-суп из томатов, Омлет с побегами папоротника, Пирог с белым шоколадом и малиной.
08. Сегодня в выпуске: Тушеный сельдерей, порей с соусом "винегрет" ,Тушеная в молоке свинина, Шоколадное пирожное с ванильным мороженым и кофе эспрессо.
09. Сегодня в выпуске: Суп из цветной капусты, Равиоли с тыквой и двумя разными соусами, сливочным в индийском стиле и розовым, Сладкая тыква с ванильным мороженым.
10. Сегодня в выпуске: Треска с соусом песто из сушёных томатов, Свежий салат из арбуза и сыра фета, Сорбет.
11. Сегодня в выпуске: Двухцветный суп из сельдерея и свёклы, Лазанья с голубым сыром "Le Ciel de Charledoix",грибами и шпинатом, Лёгкий карамельный торт .
MediaInfo:
General
Complete name : Ricardo and friends.1-Season_Tarjaa\Ricardo and friends.1sezon.v.02_Xvid.SATRip.Tarjaa.avi
Format : AVI
Format/Info : Audio Video Interleave
File size : 267 MiB
Duration : 21mn 29s
Overall bit rate : 1 736 Kbps
Writing application : VirtualDubMod 1.5.10.3 | www.virtualdub-fr.org || (build 2550/release)
Writing library : VirtualDubMod build 2550/release
Video
ID : 0
Format : MPEG-4 Visual
Format profile : Advanced Simple@L5
Format settings, BVOP : 1
Format settings, QPel : No
Format settings, GMC : No warppoints
Format settings, Matrix : Default (H.263)
Codec ID : XVID
Codec ID/Hint : XviD
Duration : 21mn 29s
Bit rate : 1 598 Kbps
Width : 704 pixels
Height : 400 pixels
Display aspect ratio : 16:9
Frame rate : 25.000 fps
Color space : YUV
Chroma subsampling : 4:2:0
Bit depth : 8 bits
Scan type : Progressive
Compression mode : Lossy
Bits/(Pixel*Frame) : 0.227
Stream size : 246 MiB (92%)
Writing library : XviD 1.2.1 (UTC 2008-12-04)
Audio
ID : 1
Format : MPEG Audio
Format version : Version 1
Format profile : Layer 3
Codec ID : 55
Codec ID/Hint : MP3
Duration : 21mn 29s
Bit rate mode : Constant
Bit rate : 128 Kbps
Channel count : 2 channels
Sampling rate : 48.0 KHz
Compression mode : Lossy
Stream size : 19.7 MiB (7%)
Alignment : Aligned on interleaves
Interleave, duration : 40 ms (1.00 video frame)
Interleave, preload duration : 504 ms
Writing library : LAME3.98r
Encoding settings : -m s -V 4 -q 2 -lowpass 17 -b 128
Качество: SATRip
Формат: AVI
Видео кодек: XviD
Аудио кодек: MP3
Видео: Xvid 704x400 25.00fps Bit rate: ~ 1 600 Kbps
Аудио: MPEG Audio Layer 3 48000Hz stereo 128kbps [Stream 01]

Скриншоты

Добавлены 7-11 выпуски
перезалейте торрент

_________________
Показать сообщения:    

Текущее время: Сегодня 13:18

Часовой пояс: GMT



Вы не можете начинать темы
Вы не можете отвечать на сообщения
Вы не можете редактировать свои сообщения
Вы не можете удалять свои сообщения
Вы не можете голосовать в опросах
Вы не можете прикреплять файлы к сообщениям
Вы не можете скачивать файлы