Важное объявление!
У Нас Все раздачи мультитрекерные, при нуле пиров в релизах, можете смело вставать на закачку!
 
Автор Сообщение

HUNTER

Стаж:
4 года 4 месяца
Сообщений:
56755

Репутация: 101

[+] [-]
Вне форума [Профиль] [ЛС]

Речной патруль
Tales of the Riverbank
Год выпуска: 2008
Страна: Великобритания
Жанр: мультфильм, семейный
Продолжительность: 01:23:10
Перевод: Профессиональный (Многоголосый, закадровый)
русские субтитры: есть-Режиссёр: Джон Хендерсон : John Henderson-Роли озвучивали: Стивен Фрай, Питер Серафинович, Миранда Харт, Морвенна Бэнкс, Джим Броудбент, Стив Кугэн-Описание: Хомяк, Крыса и Морская свинка живут на берегу реки, где зеленые трава и деревья, ясные и синие речные воды. Но все может измениться… Однажды их уносит бурными водами далеко от дома. Вредные хорьки и фабрика, которой управляют Жирные Коты, — это еще не все, что угрожает разрушить их дом, их реку. Этим отважным героям предстоит отстоять чистоту своего дома.- релиз: -Качество: WEB-DL 720p
Формат: MKV
Видео кодек: AVC
Аудио кодек: AC3
Видео: 1280x688 , 24 fps, ~3931 kbps avg, 0.186 bit/pixel
Аудио #1: [RUS] 48 kHz, AC3 Dolby Digital, 3/2 (L,C,R,l,r) + LFE ch, ~448 kbps avg
Аудио #2: [ENG] 48 kHz, AC3 Dolby Digital, 3/2 (L,C,R,l,r) + LFE ch, ~448 kbps avg
субтитры: русские, английские
навигация по главам: 15 глав (не именных)

MediaInfo

Общее
Уникальный идентификатор : 216957892608810935069372914787949753381 (0xA33891F8EE823989B3E946C1BD903425)
Полное имя : D:\Речной патруль\Tales of the Riverbank.2008.WEB-DL 720p.mkv
Формат : Matroska
Версия формата : Version 4 / Version 2
Размер файла : 2,86 Гбайт
Продолжительность : 1 ч. 23 м.
Общий поток : 4925 Кбит/сек
Название фильма : Tales of the Riverbank.2008.WEB-DL 720p -Azureus-
Дата кодирования : UTC 2016-01-14 06:08:13
Программа кодирования : mkvmerge v7.1.0 ('Good Love') 32bit built on Jul 27 2014 12:59:18
Библиотека кодирования : libebml v1.3.0 + libmatroska v1.4.1
DURATION : 01:22:52.025000000
NUMBER_OF_FRAMES : 1329
NUMBER_OF_BYTES : 45074
_STATISTICS_WRITING_APP : mkvmerge v7.1.0 ('Good Love') 32bit built on Jul 27 2014 12:59:18
_STATISTICS_WRITING_DATE_UTC : 2016-01-14 06:08:13
_STATISTICS_TAGS : BPS DURATION NUMBER_OF_FRAMES NUMBER_OF_BYTES
Видео
Идентификатор : 1
Формат : AVC
Формат/Информация : Advanced Video Codec
Профиль формата : High@L3.1
Параметр CABAC формата : Нет
Параметр ReFrames формата : 2 кадра
Идентификатор кодека : V_MPEG4/ISO/AVC
Продолжительность : 1 ч. 23 м.
Битрейт : 3931 Кбит/сек
Ширина : 1280 пикселей
Высота : 688 пикселей
Соотношение сторон : 1,85:1
Режим частоты кадров : Постоянный
Частота кадров : 24,000 кадра/сек
Цветовое пространство : YUV
Субдискретизация насыщенности : 4:2:0
Битовая глубина : 8 бит
Тип развёртки : Прогрессивная
Бит/(Пиксели*Кадры) : 0.186
Размер потока : 2,28 Гбайт (80%)
Язык : English
Default : Да
Forced : Нет
Цветовой диапазон : Limited
Основные цвета : BT.709
Характеристики трансфера : BT.709
Коэффициенты матрицы : BT.709
Аудио #1
Идентификатор : 2
Формат : AC-3
Формат/Информация : Audio Coding 3
Расширение режима : CM (complete main)
Параметр Endianness формата : Big
Идентификатор кодека : A_AC3
Продолжительность : 1 ч. 23 м.
Вид битрейта : Постоянный
Битрейт : 448 Кбит/сек
Каналы : 6 каналов
Расположение каналов : Front: L C R, Side: L R, LFE
Частота : 48,0 КГц
Метод сжатия : С потерями
Размер потока : 267 Мбайт (9%)
Заголовок : MVO
Язык : Russian
Default : Да
Forced : Нет
Аудио #2
Идентификатор : 3
Формат : AC-3
Формат/Информация : Audio Coding 3
Расширение режима : CM (complete main)
Параметр Endianness формата : Big
Идентификатор кодека : A_AC3
Продолжительность : 1 ч. 23 м.
Вид битрейта : Постоянный
Битрейт : 448 Кбит/сек
Каналы : 6 каналов
Расположение каналов : Front: L C R, Side: L R, LFE
Частота : 48,0 КГц
Метод сжатия : С потерями
Размер потока : 267 Мбайт (9%)
Заголовок : ENG
Язык : English
Default : Нет
Forced : Нет
Текст #1
Идентификатор : 4
Формат : UTF-8
Идентификатор кодека : S_TEXT/UTF8
Идентификатор кодека/Информация : UTF-8 Plain Text
Заголовок : rus sub
Язык : Russian
Default : Нет
Forced : Нет
Текст #2
Идентификатор : 5
Формат : UTF-8
Идентификатор кодека : S_TEXT/UTF8
Идентификатор кодека/Информация : UTF-8 Plain Text
Заголовок : eng sub
Язык : English
Default : Нет
Forced : Нет
Меню
00:00:00.000 : en:1
00:06:45.000 : en:2
00:14:46.000 : en:3
00:20:14.000 : en:4
00:26:13.000 : en:5
00:29:54.000 : en:6
00:36:19.000 : en:7
00:43:02.000 : en:8
00:48:16.000 : en:9
00:54:27.000 : en:10
01:00:35.000 : en:11
01:06:31.000 : en:12
01:10:57.000 : en:13
01:14:34.000 : en:14
01:18:18.000 : en:15

_________________
Показать сообщения:    

Текущее время: Сегодня 16:32

Часовой пояс: GMT



Вы не можете начинать темы
Вы не можете отвечать на сообщения
Вы не можете редактировать свои сообщения
Вы не можете удалять свои сообщения
Вы не можете голосовать в опросах
Вы не можете прикреплять файлы к сообщениям
Вы не можете скачивать файлы